Звёздные войны: Эпизод 3 – Месть Ситхов / Star Wars: Episode III - Revenge of the Sith (2005) BDRip 720p | D, P, P2, A

 
Автор Сообщение

Russian Mafia ®

Пол:

Стаж: 1 год 8 месяцев

Сообщений: 4257



Награды: 10 (Подробнее)

Mega Seeder 1 (Количество: 1) За внесенный вклад в развитие сайта (Количество: 1) Top Releaser 2 (Количество: 1)
Торрент-статистика

Создавать темы 22-Июл-2016 19:21

[Цитировать]

Звёздные войны: Эпизод 3 – Месть СитховStar Wars: Episode III - Revenge of the Sith«Сага окончена»- Страна: США
Жанр: фантастика, фэнтези, боевик, приключения
Год выпуска: 2005
Продолжительность: 02:20:06
Перевод: Профессиональный (полное дублирование), Профессиональный (многоголосый, закадровый), Профессиональный (двухголосый, закадровый), 2 x Авторский, Оригинальный
Субтитры: русские (Forced + 3 x Full + 2 x комментарии), английские.-Режиссер: Джордж Лукас / George Lucas-В ролях: Юэн МакГрегор (Obi-Wan Kenobi), Натали Портман (Padmé), Хейден Кристенсен (Anakin Skywalker), Иен МакДермид (Supreme Chancellor Palpatine), Сэмюэл Л. Джексон (Mace Windu), Джимми Смитс (Senator Bail Organa), Фрэнк Оз (Yoda, озвучка), Энтони Дэниелс (C-3PO), Кристофер Ли (Count Dooku), Киша Касл-Хьюз (Queen of Naboo), Сайлас Карсон (Ki-Adi-Mundi / Nute Gunray), Джей Лагаая (Captain Typho)
Дублёры: Евгений Иванов (Obi-Wan Kenobi), Светлана Кузнецова (Padmé), Андрей Зайцев (Anakin Skywalker), Вадим Яковлев (Supreme Chancellor Palpatine), Сергей Воробьев (Mace Windu), Андрей Тенетко (Senator Bail Organa), Борис Смолкин (Yoda), Валерий Кухарешин (C-3PO), Аркадий Волгин (Count Dooku), Игорь Лифанов (Ki-Adi-Mundi / Nute Gunray), Вадим Гущин (Captain Typho; Tion Medon), Валерий Соловьев (Commander Cody)-Описание: Со времен, описанных во втором эпизоде, прошло 3 года. Энакин окончательно встает на темную сторону силы и превращается в Дарта Вейдера. Республика гибнет под ударами крепнущей Империи, Джедаи теряют контроль над галактикой, а Падме готовится к тому, чтобы стать матерью. Все эти события будут разворачиваться на фоне грандиозной битвы, знаменующей финал Клонических войн…-
MPAA: PG-13 - Детям до 13 лет просмотр не желателен-Семпл-Качество: BDRip
Контейнер: MKV
Видео: AVC, 1280x544 (2.35:1), 5465 kbps, 23,976 fps, 0,327 bpp
Аудио №1: русский / AC3 / 5.1 / 48 kHz / 448 kbps / Дубляж
Аудио №2: русский / AC3 / 5.1 / 48 kHz / 448 kbps / MVO ( All Films )
Аудио №3: русский / AC3 / 5.1 / 48 kHz / 448 kbps / DVO ( Tycoon )
Аудио №4: русский / AC3 / 5.1 / 48 kHz / 448 kbps / AVO ( Гаврилов )
Аудио №5: русский / AC3 / 5.1 / 48 kHz / 448 kbps / AVO ( Королёв )
Аудио №6: английский / AC3 / 5.1 / 48 kHz / 448 kbps
Аудио №7: английский / AC3 / 2.0 / 48 kHz / 224 kbps / Аудиокомментарий №1
Аудио №8: английский / AC3 / 2.0 / 48 kHz / 224 kbps / Аудиокомментарий №2
Навигация по главам: есть-

Media Info

Format : Matroska
Format version : Version 2
File size : 8.42 GiB
Duration : 2h 20mn
Overall bit rate : 8 603 Kbps
Movie name : = Звездные войны: Эпизод 3 – Месть Ситхов / Star Wars: Episode III - Revenge of the Sith (2005) BDRip 720p by SC Kosmos =
Encoded date : UTC 2016-06-09 14:19:17
Writing application : mkvmerge v5.8.0 ('No Sleep / Pillow') built on Sep 2 2012 15:37:04
Writing library : libebml v1.2.3 + libmatroska v1.3.0
Attachment : Yes
Video
ID : 1
Format : AVC
Format/Info : Advanced Video Codec
Format profile : High@L4.1
Format settings, CABAC : Yes
Format settings, ReFrames : 10 frames
Codec ID : V_MPEG4/ISO/AVC
Duration : 2h 20mn
Bit rate : 5 465 Kbps
Width : 1 280 pixels
Height : 544 pixels
Display aspect ratio : 2.35:1
Frame rate : 23.976 fps
Color space : YUV
Chroma subsampling : 4:2:0
Bit depth : 8 bits
Scan type : Progressive
Bits/(Pixel*Frame) : 0.327
Stream size : 5.18 GiB (62%)
Title : Звездные войны: Эпизод 3 – Месть Ситхов / Star Wars: Episode III - Revenge of the Sith (2005) BDRip 720p by SC Kosmos
Writing library : x264 core 146 r2538 121396c
Encoding settings : cabac=1 / ref=10 / deblock=1:-3:-3 / analyse=0x3:0x113 / me=umh / subme=11 / psy=1 / psy_rd=1.00:0.00 / mixed_ref=1 / me_range=32 / chroma_me=1 / trellis=2 / 8x8dct=1 / cqm=0 / deadzone=21,11 / fast_pskip=0 / chroma_qp_offset=-2 / threads=12 / lookahead_threads=3 / sliced_threads=0 / nr=0 / decimate=0 / interlaced=0 / bluray_compat=0 / constrained_intra=0 / bframes=10 / b_pyramid=2 / b_adapt=2 / b_bias=0 / direct=3 / weightb=1 / open_gop=0 / weightp=2 / keyint=240 / keyint_min=23 / scenecut=40 / intra_refresh=0 / rc_lookahead=50 / rc=2pass / mbtree=0 / bitrate=5465 / ratetol=1.0 / qcomp=0.60 / qpmin=0 / qpmax=69 / qpstep=4 / cplxblur=20.0 / qblur=0.5 / vbv_maxrate=50000 / vbv_bufsize=62500 / nal_hrd=none / filler=0 / ip_ratio=1.40 / pb_ratio=1.30 / aq=1:1.00 / zones=192514,201539,b=0.25
Language : English
Default : Yes
Forced : No
Audio #1
ID : 2
Format : AC-3
Format/Info : Audio Coding 3
Mode extension : CM (complete main)
Codec ID : A_AC3
Duration : 2h 20mn
Bit rate mode : Constant
Bit rate : 448 Kbps
Channel(s) : 6 channels
Channel positions : Front: L C R, Side: L R, LFE
Sampling rate : 48.0 KHz
Bit depth : 16 bits
Compression mode : Lossy
Stream size : 449 MiB (5%)
Title : Дубляж
Language : Russian
Default : Yes
Forced : Yes
Audio #2
ID : 3
Format : AC-3
Format/Info : Audio Coding 3
Mode extension : CM (complete main)
Codec ID : A_AC3
Duration : 2h 20mn
Bit rate mode : Constant
Bit rate : 448 Kbps
Channel(s) : 6 channels
Channel positions : Front: L C R, Side: L R, LFE
Sampling rate : 48.0 KHz
Bit depth : 16 bits
Compression mode : Lossy
Stream size : 449 MiB (5%)
Title : MVO ( All Films )
Language : Russian
Default : No
Forced : No
Audio #3
ID : 4
Format : AC-3
Format/Info : Audio Coding 3
Mode extension : CM (complete main)
Codec ID : A_AC3
Duration : 2h 20mn
Bit rate mode : Constant
Bit rate : 448 Kbps
Channel(s) : 6 channels
Channel positions : Front: L C R, Side: L R, LFE
Sampling rate : 48.0 KHz
Bit depth : 16 bits
Compression mode : Lossy
Stream size : 449 MiB (5%)
Title : DVO ( Tycoon )
Language : Russian
Default : No
Forced : No
Audio #4
ID : 5
Format : AC-3
Format/Info : Audio Coding 3
Mode extension : CM (complete main)
Codec ID : A_AC3
Duration : 2h 20mn
Bit rate mode : Constant
Bit rate : 448 Kbps
Channel(s) : 6 channels
Channel positions : Front: L C R, Side: L R, LFE
Sampling rate : 48.0 KHz
Bit depth : 16 bits
Compression mode : Lossy
Stream size : 449 MiB (5%)
Title : AVO ( Гаврилов )
Language : Russian
Default : No
Forced : No
Audio #5
ID : 6
Format : AC-3
Format/Info : Audio Coding 3
Mode extension : CM (complete main)
Codec ID : A_AC3
Duration : 2h 20mn
Bit rate mode : Constant
Bit rate : 448 Kbps
Channel(s) : 6 channels
Channel positions : Front: L C R, Side: L R, LFE
Sampling rate : 48.0 KHz
Bit depth : 16 bits
Compression mode : Lossy
Stream size : 449 MiB (5%)
Title : AVO ( Королёв )
Language : Russian
Default : No
Forced : No
Audio #6
ID : 7
Format : AC-3
Format/Info : Audio Coding 3
Mode extension : CM (complete main)
Codec ID : A_AC3
Duration : 2h 20mn
Bit rate mode : Constant
Bit rate : 448 Kbps
Channel(s) : 6 channels
Channel positions : Front: L C R, Side: L R, LFE
Sampling rate : 48.0 KHz
Bit depth : 16 bits
Compression mode : Lossy
Stream size : 449 MiB (5%)
Language : English
Default : No
Forced : No
Audio #7
ID : 8
Format : AC-3
Format/Info : Audio Coding 3
Mode extension : CM (complete main)
Codec ID : A_AC3
Duration : 2h 20mn
Bit rate mode : Constant
Bit rate : 224 Kbps
Channel(s) : 2 channels
Channel positions : Front: L R
Sampling rate : 48.0 KHz
Bit depth : 16 bits
Compression mode : Lossy
Stream size : 224 MiB (3%)
Title : Аудиокомментарий №1 с Джорджем Лукасом, Риком МакКаллумом, Робом Коулманом, Джоном Ноллом и Роджером Гайеттом
Language : English
Default : No
Forced : No
Audio #8
ID : 9
Format : AC-3
Format/Info : Audio Coding 3
Mode extension : CM (complete main)
Codec ID : A_AC3
Duration : 2h 20mn
Bit rate mode : Constant
Bit rate : 224 Kbps
Channel(s) : 2 channels
Channel positions : Front: L R
Sampling rate : 48.0 KHz
Bit depth : 16 bits
Compression mode : Lossy
Stream size : 224 MiB (3%)
Title : Аудиокомментарий №2 из архивных интервью с актёрами и создателями фильма
Language : English
Default : No
Forced : No
Text #1
ID : 10
Format : UTF-8
Codec ID : S_TEXT/UTF8
Codec ID/Info : UTF-8 Plain Text
Title : Forced
Language : Russian
Default : Yes
Forced : Yes
Text #2
ID : 11
Format : UTF-8
Codec ID : S_TEXT/UTF8
Codec ID/Info : UTF-8 Plain Text
Title : R5
Language : Russian
Default : No
Forced : No
Text #3
ID : 12
Format : UTF-8
Codec ID : S_TEXT/UTF8
Codec ID/Info : UTF-8 Plain Text
Language : Russian
Default : No
Forced : No
Text #4
ID : 13
Format : UTF-8
Codec ID : S_TEXT/UTF8
Codec ID/Info : UTF-8 Plain Text
Title : Tycoon
Language : Russian
Default : No
Forced : No
Text #5
ID : 14
Format : UTF-8
Codec ID : S_TEXT/UTF8
Codec ID/Info : UTF-8 Plain Text
Title : Соmmеntаry№1
Language : Russian
Default : No
Forced : No
Text #6
ID : 15
Format : UTF-8
Codec ID : S_TEXT/UTF8
Codec ID/Info : UTF-8 Plain Text
Title : Соmmеntаry№2
Language : Russian
Default : No
Forced : No
Text #7
ID : 16
Format : UTF-8
Codec ID : S_TEXT/UTF8
Codec ID/Info : UTF-8 Plain Text
Language : English
Default : No
Forced : No
Menu
00:00:00.000 : en:00:00:00.000
00:05:00.000 : en:00:05:00.000
00:10:00.000 : en:00:10:00.000
00:15:00.000 : en:00:15:00.000
00:20:00.000 : en:00:20:00.000
00:25:00.000 : en:00:25:00.000
00:30:00.000 : en:00:30:00.000
00:35:00.000 : en:00:35:00.000
00:40:00.000 : en:00:40:00.000
00:45:00.000 : en:00:45:00.000
00:50:00.000 : en:00:50:00.000
00:55:00.000 : en:00:55:00.000
01:00:00.000 : en:01:00:00.000
01:05:00.000 : en:01:05:00.000
01:10:00.000 : en:01:10:00.000
01:15:00.000 : en:01:15:00.000
01:20:00.000 : en:01:20:00.000
01:25:00.000 : en:01:25:00.000
01:30:00.000 : en:01:30:00.000
01:35:00.000 : en:01:35:00.000
01:40:00.000 : en:01:40:00.000
01:45:00.000 : en:01:45:00.000
01:50:00.000 : en:01:50:00.000
01:55:00.000 : en:01:55:00.000
02:00:00.000 : en:02:00:00.000
02:05:00.000 : en:02:05:00.000
02:10:00.000 : en:02:10:00.000
02:15:00.000 : en:02:15:00.000
-

Скриншоты


-За русские дороги ОГРОМНОЕ СПАСИБО - -=Osetin=-, wolodik, konstantin49.
[Профиль] [ЛС]
Показать сообщения:    

Текущее время: Сегодня 20:25

Часовой пояс: GMT



Вы не можете начинать темы
Вы не можете отвечать на сообщения
Вы не можете редактировать свои сообщения
Вы не можете удалять свои сообщения
Вы не можете голосовать в опросах
Вы не можете прикреплять файлы к сообщениям
Вы не можете скачивать файлы