Звёздные войны: Эпизод 2 – Атака клонов / Star Wars: Episode II - Attack of the Clones (2002) BDRip 720p | D, P, P2, A

 
Автор Сообщение

Russian Mafia ®

Пол:

Стаж: 1 год 8 месяцев

Сообщений: 4257



Награды: 10 (Подробнее)

За внесенный вклад в развитие сайта (Количество: 1) Top Releaser 4 (Количество: 1) Top Releaser 5 (Количество: 1)
Торрент-статистика

Создавать темы 20-Июл-2016 17:13

[Цитировать]

Звёздные войны: Эпизод 2 – Атака клоновStar Wars: Episode II - Attack of the Clones- Страна: США
Жанр: фантастика, фэнтези, боевик, приключения
Год выпуска: 2002
Продолжительность: 02:22:27
Перевод: Профессиональный (полное дублирование), 2 x Профессиональный (многоголосый, закадровый), 2 x Профессиональный (двухголосый, закадровый), 2 x Авторский, Оригинальный
Субтитры: русские (Forced + 2 x Full + 2 x комментарии), английские (Forced + Full).-Режиссер: Джордж Лукас / George Lucas-В ролях: Юэн МакГрегор (Obi-Wan Kenobi), Хейден Кристенсен (Anakin Skywalker), Натали Портман (Padmé), Кристофер Ли (Count Dooku / Darth Tyranus), Сэмюэл Л. Джексон (Mace Windu), Фрэнк Оз (Yoda, озвучка), Иен МакДермид (Supreme Chancellor Palpatine), Пернилла Аугуст (Shmi Skywalker), Темуэра Моррисон (Jango Fett), Джимми Смитс (Senator Bail Organa), Джек Томпсон (Cliegg Lars), Лианна Уолсмен (Zam Wesell)
Дублёры: Евгений Иванов (Obi-Wan Kenobi), Андрей Зайцев (Anakin Skywalker), Юлия Николаева (Padmé), Аркадий Волгин (Count Dooku / Darth Tyranus), Сергей Воробьев (Mace Windu), Борис Смолкин (Yoda), Вадим Яковлев (Supreme Chancellor Palpatine), Светлана Шейченко (Shmi Skywalker), Валерий Соловьев (Jango Fett), Андрей Тенетко (Senator Bail Organa), Алексей Гурьев (Cliegg Lars; Dexter Jettster), Александр Завьялов (Jar Jar Binks / Achk Med-Beq)-Описание: Действие разворачивается через 10 лет после событий, описанных в первом эпизоде знаменитой саги. Республика все глубже погружается в пучину противоречий и хаоса. Движение сепаратистов, представленное сотнями планет и могущественным альянсом корпораций, грозит стать новой угрозой для Галактики, с которой не смогут справиться даже джедаи. Назревающий конфликт, заранее спланированный могущественными, но пока еще не разоблаченными силами, ведет к началу Клонических войн и к закату республики. Чтобы противостоять угрозе вселенских масштабов, Верховный канцлер Палпатин добивается консолидации власти в республике в своих руках и отдает приказ о создании республиканской армии для поддержки малочисленной группы джедаев в их борьбе с превосходящим противником.-
MPAA: PG - Рекомендуется присутствие родителей-Семпл-Качество: BDRip
Контейнер: MKV
Видео: AVC, 1280x544 (2.35:1), 5200 kbps, 23,976 fps, 0,311 bpp
Аудио №1: русский / AC3 / 5.1 / 48 kHz / 448 kbps / Дубляж
Аудио №2: русский / AC3 / 5.1 / 48 kHz / 448 kbps / MVO ( Киномания )
Аудио №3: русский / AC3 / 5.1 / 48 kHz / 448 kbps / DVO ( Tycoon )
Аудио №4: русский / AC3 / 5.1 / 48 kHz / 448 kbps / DVO ( П.Гланц и И.Королёва )
Аудио №5: русский / AC3 / 2.0 / 48 kHz / 192 kbps / MVO ( Неизвестно )
Аудио №6: русский / AC3 / 5.1 / 48 kHz / 448 kbps / AVO ( Гаврилов )
Аудио №7: русский / AC3 / 5.1 / 48 kHz / 448 kbps / AVO ( Живов )
Аудио №8: английский / AC3 / 5.1 / 48 kHz / 448 kbps
Аудио №9: английский / AC3 / 2.0 / 48 kHz / 224 kbps / Аудиокомментарий №1
Аудио №10: английский / AC3 / 2.0 / 48 kHz / 224 kbps / Аудиокомментарий №2
Навигация по главам: есть-

Media Info

Format : Matroska
Format version : Version 2
File size : 8.94 GiB
Duration : 2h 22mn
Overall bit rate : 8 979 Kbps
Movie name : = Звездные войны: Эпизод 2 - Атака клонов / Star Wars: Episode II - Attack of the Clones BDRip 720p by SC Kosmos =
Encoded date : UTC 2016-07-15 09:29:20
Writing application : mkvmerge v5.8.0 ('No Sleep / Pillow') built on Sep 2 2012 15:37:04
Writing library : libebml v1.2.3 + libmatroska v1.3.0
Attachment : Yes
Video
ID : 1
Format : AVC
Format/Info : Advanced Video Codec
Format profile : High@L4.1
Format settings, CABAC : Yes
Format settings, ReFrames : 8 frames
Codec ID : V_MPEG4/ISO/AVC
Duration : 2h 22mn
Bit rate : 5 200 Kbps
Width : 1 280 pixels
Height : 544 pixels
Display aspect ratio : 2.35:1
Frame rate : 23.976 fps
Color space : YUV
Chroma subsampling : 4:2:0
Bit depth : 8 bits
Scan type : Progressive
Bits/(Pixel*Frame) : 0.311
Stream size : 5.00 GiB (56%)
Title : Звездные войны: Эпизод 2 - Атака клонов / Star Wars: Episode II - Attack of the Clones BDRip 720p by SC Kosmos
Writing library : x264 core 146 r2538 121396c
Encoding settings : cabac=1 / ref=8 / deblock=1:-3:-3 / analyse=0x3:0x113 / me=umh / subme=11 / psy=1 / psy_rd=1.00:0.00 / mixed_ref=1 / me_range=32 / chroma_me=1 / trellis=2 / 8x8dct=1 / cqm=0 / deadzone=21,11 / fast_pskip=0 / chroma_qp_offset=-2 / threads=12 / lookahead_threads=3 / sliced_threads=0 / nr=0 / decimate=0 / interlaced=0 / bluray_compat=0 / constrained_intra=0 / bframes=10 / b_pyramid=2 / b_adapt=2 / b_bias=0 / direct=3 / weightb=1 / open_gop=0 / weightp=2 / keyint=240 / keyint_min=23 / scenecut=40 / intra_refresh=0 / rc_lookahead=50 / rc=2pass / mbtree=0 / bitrate=5200 / ratetol=1.0 / qcomp=0.60 / qpmin=0 / qpmax=69 / qpstep=4 / cplxblur=20.0 / qblur=0.5 / vbv_maxrate=62500 / vbv_bufsize=78125 / nal_hrd=none / filler=0 / ip_ratio=1.40 / pb_ratio=1.30 / aq=1:1.00
Language : English
Default : Yes
Forced : No
Color primaries : BT.709-5, BT.1361, IEC 61966-2-4, SMPTE RP177
Transfer characteristics : BT.709-5, BT.1361
Matrix coefficients : BT.709-5, BT.1361, IEC 61966-2-4 709, SMPTE RP177
Audio #1
ID : 2
Format : AC-3
Format/Info : Audio Coding 3
Mode extension : CM (complete main)
Codec ID : A_AC3
Duration : 2h 22mn
Bit rate mode : Constant
Bit rate : 448 Kbps
Channel(s) : 6 channels
Channel positions : Front: L C R, Side: L R, LFE
Sampling rate : 48.0 KHz
Bit depth : 16 bits
Compression mode : Lossy
Stream size : 457 MiB (5%)
Title : Дубляж
Language : Russian
Default : Yes
Forced : No
Audio #2
ID : 3
Format : AC-3
Format/Info : Audio Coding 3
Mode extension : CM (complete main)
Codec ID : A_AC3
Duration : 2h 22mn
Bit rate mode : Constant
Bit rate : 448 Kbps
Channel(s) : 6 channels
Channel positions : Front: L C R, Side: L R, LFE
Sampling rate : 48.0 KHz
Bit depth : 16 bits
Compression mode : Lossy
Stream size : 457 MiB (5%)
Title : MVO ( Киномания )
Language : Russian
Default : No
Forced : No
Audio #3
ID : 4
Format : AC-3
Format/Info : Audio Coding 3
Mode extension : CM (complete main)
Codec ID : A_AC3
Duration : 2h 22mn
Bit rate mode : Constant
Bit rate : 448 Kbps
Channel(s) : 6 channels
Channel positions : Front: L C R, Side: L R, LFE
Sampling rate : 48.0 KHz
Bit depth : 16 bits
Compression mode : Lossy
Stream size : 457 MiB (5%)
Title : DVO ( Tycoon )
Language : Russian
Default : No
Forced : No
Audio #4
ID : 5
Format : AC-3
Format/Info : Audio Coding 3
Mode extension : CM (complete main)
Codec ID : A_AC3
Duration : 2h 22mn
Bit rate mode : Constant
Bit rate : 448 Kbps
Channel(s) : 6 channels
Channel positions : Front: L C R, Side: L R, LFE
Sampling rate : 48.0 KHz
Bit depth : 16 bits
Compression mode : Lossy
Stream size : 457 MiB (5%)
Title : DVO ( П.Гланц и И.Королёва )
Language : Russian
Default : No
Forced : No
Audio #5
ID : 6
Format : AC-3
Format/Info : Audio Coding 3
Mode extension : CM (complete main)
Codec ID : A_AC3
Duration : 2h 22mn
Bit rate mode : Constant
Bit rate : 192 Kbps
Channel(s) : 2 channels
Channel positions : Front: L R
Sampling rate : 48.0 KHz
Bit depth : 16 bits
Compression mode : Lossy
Stream size : 196 MiB (2%)
Title : MVO ( Неизвестно )
Language : Russian
Default : No
Forced : No
Audio #6
ID : 7
Format : AC-3
Format/Info : Audio Coding 3
Mode extension : CM (complete main)
Codec ID : A_AC3
Duration : 2h 22mn
Bit rate mode : Constant
Bit rate : 448 Kbps
Channel(s) : 6 channels
Channel positions : Front: L C R, Side: L R, LFE
Sampling rate : 48.0 KHz
Bit depth : 16 bits
Compression mode : Lossy
Stream size : 457 MiB (5%)
Title : AVO ( Гаврилов )
Language : Russian
Default : No
Forced : No
Audio #7
ID : 8
Format : AC-3
Format/Info : Audio Coding 3
Mode extension : CM (complete main)
Codec ID : A_AC3
Duration : 2h 22mn
Bit rate mode : Constant
Bit rate : 448 Kbps
Channel(s) : 6 channels
Channel positions : Front: L C R, Side: L R, LFE
Sampling rate : 48.0 KHz
Bit depth : 16 bits
Compression mode : Lossy
Stream size : 457 MiB (5%)
Title : AVO ( Живов )
Language : Russian
Default : No
Forced : No
Audio #8
ID : 9
Format : AC-3
Format/Info : Audio Coding 3
Mode extension : CM (complete main)
Codec ID : A_AC3
Duration : 2h 22mn
Bit rate mode : Constant
Bit rate : 448 Kbps
Channel(s) : 6 channels
Channel positions : Front: L C R, Side: L R, LFE
Sampling rate : 48.0 KHz
Bit depth : 16 bits
Compression mode : Lossy
Stream size : 457 MiB (5%)
Language : English
Default : No
Forced : No
Audio #9
ID : 10
Format : AC-3
Format/Info : Audio Coding 3
Mode extension : CM (complete main)
Codec ID : A_AC3
Duration : 2h 22mn
Bit rate mode : Constant
Bit rate : 224 Kbps
Channel(s) : 2 channels
Channel positions : Front: L R
Sampling rate : 48.0 KHz
Bit depth : 16 bits
Compression mode : Lossy
Stream size : 228 MiB (2%)
Title : Аудиокомментарий №1 с Джорджем Лукасом, Риком МакКаллумом, Беном Берттом, Робом Коулманом, Пабло Хельманом, Джоном Ноллом и Беном Сноу
Language : English
Default : No
Forced : No
Audio #10
ID : 11
Format : AC-3
Format/Info : Audio Coding 3
Mode extension : CM (complete main)
Codec ID : A_AC3
Duration : 2h 22mn
Bit rate mode : Constant
Bit rate : 224 Kbps
Channel(s) : 2 channels
Channel positions : Front: L R
Sampling rate : 48.0 KHz
Bit depth : 16 bits
Compression mode : Lossy
Stream size : 228 MiB (2%)
Title : Аудиокомментарий №2 из архивных интервью с актёрами и создателями фильма
Language : English
Default : No
Forced : No
Text #1
ID : 12
Format : UTF-8
Codec ID : S_TEXT/UTF8
Codec ID/Info : UTF-8 Plain Text
Title : Forced
Language : Russian
Default : Yes
Forced : Yes
Text #2
ID : 13
Format : UTF-8
Codec ID : S_TEXT/UTF8
Codec ID/Info : UTF-8 Plain Text
Title : Tycoon
Language : Russian
Default : No
Forced : No
Text #3
ID : 14
Format : UTF-8
Codec ID : S_TEXT/UTF8
Codec ID/Info : UTF-8 Plain Text
Language : Russian
Default : No
Forced : No
Text #4
ID : 15
Format : UTF-8
Codec ID : S_TEXT/UTF8
Codec ID/Info : UTF-8 Plain Text
Title : Соmmеntаry№1
Language : Russian
Default : No
Forced : No
Text #5
ID : 16
Format : UTF-8
Codec ID : S_TEXT/UTF8
Codec ID/Info : UTF-8 Plain Text
Title : Соmmеntаry№2
Language : Russian
Default : No
Forced : No
Text #6
ID : 17
Format : UTF-8
Codec ID : S_TEXT/UTF8
Codec ID/Info : UTF-8 Plain Text
Title : Forced
Language : English
Default : No
Forced : No
Text #7
ID : 18
Format : UTF-8
Codec ID : S_TEXT/UTF8
Codec ID/Info : UTF-8 Plain Text
Language : English
Default : No
Forced : No
Menu
00:00:00.000 : en:00:00:00.000
00:00:23.440 : en:00:00:23.440
00:01:50.527 : en:00:01:50.527
00:04:22.095 : en:00:04:22.095
00:07:00.002 : en:00:07:00.002
00:10:28.961 : en:00:10:28.961
00:14:19.899 : en:00:14:19.899
00:21:35.292 : en:00:21:35.292
00:24:48.236 : en:00:24:48.236
00:29:45.866 : en:00:29:45.866
00:31:33.473 : en:00:31:33.473
00:33:48.526 : en:00:33:48.526
00:34:50.505 : en:00:34:50.505
00:36:05.121 : en:00:36:05.121
00:38:25.927 : en:00:38:25.927
00:39:25.362 : en:00:39:25.362
00:40:56.369 : en:00:40:56.369
00:42:12.780 : en:00:42:12.780
00:44:02.014 : en:00:44:02.014
00:45:50.414 : en:00:45:50.414
00:47:50.074 : en:00:47:50.074
00:50:21.016 : en:00:50:21.016
00:53:01.427 : en:00:53:01.427
00:56:44.818 : en:00:56:44.818
00:58:56.699 : en:00:58:56.699
01:00:46.059 : en:01:00:46.059
01:03:41.192 : en:01:03:41.192
01:06:24.355 : en:01:06:24.355
01:11:18.774 : en:01:11:18.774
01:14:01.353 : en:01:14:01.353
01:15:23.476 : en:01:15:23.476
01:17:48.872 : en:01:17:48.872
01:21:40.353 : en:01:21:40.353
01:23:46.895 : en:01:23:46.895
01:28:10.158 : en:01:28:10.158
01:30:52.904 : en:01:30:52.904
01:33:38.487 : en:01:33:38.487
01:35:27.846 : en:01:35:27.846
01:42:44.867 : en:01:42:44.867
01:45:14.015 : en:01:45:14.015
01:49:53.627 : en:01:49:53.627
01:56:22.475 : en:01:56:22.475
01:57:47.601 : en:01:57:47.601
02:00:29.180 : en:02:00:29.180
02:04:48.980 : en:02:04:48.980
02:07:41.944 : en:02:07:41.944
02:11:23.667 : en:02:11:23.667
02:12:54.882 : en:02:12:54.882
02:14:49.247 : en:02:14:49.247
02:15:54.938 : en:02:15:54.938
-

Скриншоты


-За русские дороги ОГРОМНОЕ СПАСИБО - -=Osetin=-, wolodik, konstantin49.
[Профиль] [ЛС]
Показать сообщения:    

Текущее время: Сегодня 00:29

Часовой пояс: GMT



Вы не можете начинать темы
Вы не можете отвечать на сообщения
Вы не можете редактировать свои сообщения
Вы не можете удалять свои сообщения
Вы не можете голосовать в опросах
Вы не можете прикреплять файлы к сообщениям
Вы не можете скачивать файлы