Звёздные войны: Пробуждение силы / Star Wars: Episode VII - The Force Awakens (2015) DVD5

 
Автор Сообщение

BOSS ®

Пол:

Стаж: 2 года 1 месяц

Сообщений: 3748

Откуда: ODESSA



Награды: 20 (Подробнее)

Top Releaser 4 (Количество: 1) Top Seeder 2 (Количество: 1) Top Keeper 2 (Количество: 1)
Торрент-статистика

Создавать темы 29-Апр-2016 16:38

[Цитировать]

«Every generation has a story»

Год выпуска: 2015
Производство: США / Lucasfilm Ltd., Truenorth Productions, Bad Robot
Жанр: Фантастика, фэнтези, боевик, приключения
Режиссер: Джей Джей Абрамс
Продюсеры: Джей Джей Абрамс, Брайан Берк, Кэтлин Кеннеди
Актеры: Джон Бойега, Дэйзи Ридли, Оскар Айзек, Адам Драйвер, Донал Глисон, Харрисон Форд, Марк Хэмилл, Кэрри Фишер, Макс фон Сюдов, Энди Серкис
Описание фильма:
Через тридцать лет после гибели Дарта Вейдера и Императора галактика по-прежнему в опасности. Государственное образование Первый Орден во главе с таинственным верховным лидером Сноуком и его правой рукой Кайло Реном идёт по стопам Империи, пытаясь захватить всю власть. В это нелёгкое время судьба сводит юную девушку Рей и бывшего штурмовика Первого Ордена Финна с героями войны с Империей — Ханом Соло, Чубаккой и генералом Леей. Вместе они должны дать бой Первому Ордену, однако настаёт тот момент, когда становится очевидно, что лишь джедаи могут остановить Сноука и Кайло Рена.
Перевод: Дублированный
Субтитры: Английские, русские-Дата мировой премьеры: 14 декабря 2015
Дата премьеры в России: 17 декабря 2015, «WDSSPR»
Дата выхода DVD релиза: 17 мая 2016, «Уолт Дисней Компани СНГ»
-Продолжительность: 02:17:57
Качество видео: DVD5
Видео: MPEG-2, 720x480@853x480 (NTSC 16:9), ~3900 Кбит/сек
Аудио: AC3 5.1, 448 Кбит/сек

DVDInfo:

Title: Star Wars. Episode VII - The Force Awakens (2015) DVD5 NTSC
Size: 4.38 Gb ( 4 588 346,00 KBytes ) - DVD-5
Enabled regions: 1, 2, 3, 4, 5, 6, 7, 8
VTS_01 :
Play Length: 00:00:00
Video: NTSC 16:9 (720x480) VBR, Auto Letterboxed
VTS_02 :
Play Length: 02:17:57
Video: NTSC 16:9 (720x480) VBR, Auto Letterboxed
Audio:
Russian (Dolby AC3, 6 ch)
Subtitles:
English
Russian
Russian
* Menus Information *
VIDEO_TS Menu
Video:
NTSC 16:9 (720x480) VBR
Auto Pan&Scan
Audio:
Not specified (Dolby AC3, 2 ch)
English Language Unit :
Title Menu
VTS_01 Menu
Video:
NTSC 16:9 (720x480) VBR
Auto Pan&Scan
Audio:
Not specified (Dolby AC3, 2 ch)
English Language Unit :
Root Menu
Angle menu
VTS_02 Menu
Video:
NTSC 4:3 (720x480) VBR
Auto Pan&Scan, Auto Letterboxed
English Language Unit :
Root Menu
Angle menu

MediaInfo:

Общее
Полное имя : G:ВидеоStar Wars. Episode VII - The Force Awakens (2015) DVD5 NTSCVIDEO_TSVTS_02_2.VOB
Формат : MPEG-PS
Размер файла : 1024 Мбайт
Продолжительность : 32 м.
Режим общего битрейта : Переменный
Общий поток : 4470 Кбит/сек
Видео
Идентификатор : 224 (0xE0)
Формат : MPEG Video
Версия формата : Version 2
Профиль формата : Main@Main
Параметр BVOP формата : Да
Параметр матрицы формата : Выборочная
Параметр GOP формата : Variable
Продолжительность : 32 м.
Вид битрейта : Переменный
Битрейт : 3933 Кбит/сек
Максимальный битрейт : 8355 Кбит/сек
Ширина : 720 пикселей
Высота : 480 пикселей
Соотношение сторон : 16:9
Частота кадров : 23,976 (24000/1001) кадра/сек
Цветовое пространство : YUV
Субдискретизация насыщенности : 4:2:0
Битовая глубина : 8 бит
Тип развёртки : Прогрессивная
Порядок развёртки : 2:3 Pulldown
Метод сжатия : С потерями
Бит/(Пиксели*Кадры) : 0.475
Временной код первого кадра : 00:32:23:12
Оригинал временного кода : Group of pictures header
GOP, открыто/закрыто : Открыто
Размер потока : 901 Мбайт (88%)
Аудио
Идентификатор : 189 (0xBD)-130 (0x82)
Формат : AC-3
Формат/Информация : Audio Coding 3
Расширение режима : CM (complete main)
Параметр Endianness формата : Big
Режим смешивания : DVD-Video
Продолжительность : 32 м.
Вид битрейта : Постоянный
Битрейт : 448 Кбит/сек
Каналы : 6 каналов
Расположение каналов : Front: L C R, Side: L R, LFE
Частота : 48,0 КГц
Частота кадров : 31,250 кадров/сек (1536 spf)
Метод сжатия : С потерями
Задержка видео : -483 мс.
Размер потока : 103 Мбайт (10%)
Текст #1
Идентификатор : 189 (0xBD)-32 (0x20)
Формат : RLE
Формат/Информация : Run-length encoding
Режим смешивания : DVD-Video
Продолжительность : 31 м.
Задержка видео : 3 с. 704 мс.
Текст #2
Идентификатор : 189 (0xBD)-33 (0x21)
Формат : RLE
Формат/Информация : Run-length encoding
Режим смешивания : DVD-Video
Меню

Доп. информация:

Исходник: Звёздные войны: Пробуждение силы / Star Wars: Episode VII - The Force Awakens (2015) DVD9 | D, P
Удалены: звуковые дорожки (в меню кнопки затёрты).
Команды диска переписаны заново, оставлено два VTS.
Видео сжато на 35,2%
Меню: статичное, недействующие кнопки затерты и закрыты.
Обработка и сжатие: DVD ReMake Pro + DVD Rebuilder + CCE SP2 [7 проходов] + Работа с меню (Adobe PhotoShop и MuxMan).

Скриншоты меню:

Скриншоты:
[Профиль] [ЛС]
Показать сообщения:    

Текущее время: Сегодня 03:22

Часовой пояс: GMT



Вы не можете начинать темы
Вы не можете отвечать на сообщения
Вы не можете редактировать свои сообщения
Вы не можете удалять свои сообщения
Вы не можете голосовать в опросах
Вы не можете прикреплять файлы к сообщениям
Вы не можете скачивать файлы