Звёздные войны: Пробуждение силы / Star Wars: Episode VII - The Force Awakens (2015) BDRip 1080p | Лицензия

 
Автор Сообщение

достали все ®

Пол:

Стаж: 1 год 8 месяцев

Сообщений: 6554



Награды: 12 (Подробнее)

Mega Seeder 3 (Количество: 1) Mega Releaser 1 (Количество: 1) Mega Releaser 2 (Количество: 1)
Торрент-статистика

Создавать темы 24-Апр-2016 03:45

[Цитировать]

Информация о фильме
Название: Звёздные войны: Пробуждение силы
Оригинальное название: Star Wars: Episode VII - The Force Awakens
Год выпуска: 2015
Жанр: Фантастика, фэнтези, боевик, приключения
Выпущено: США, Bad Robot, Lucasfilm Ltd., Truenorth Productions
Режиссер: Джей Джей Абрамс
В ролях: Джон Бойега, Дэйзи Ридли, Оскар Айзек, Адам Драйвер, Донал Глисон, Харрисон Форд, Марк Хэмилл, Кэрри Фишер, Макс фон Сюдов, Энди Серкис, Лупита Нионго, Энтони Дэниелс, Питер Мейхью, Гвендолин Кристи, Пип Андерсон, Саймон Пегг, Киран Шах, Саша Фрост, Пип Торренс, Эндрю Джек
О фильме: Через тридцать лет после гибели Дарта Вейдера и Императора галактика по-прежнему в опасности. Государственное образование Новый Порядок во главе с их таинственным верховным лидером Сноуком и его правой рукой Кайло Реном идёт по стопам Империи, пытаясь захватить всю власть. В это нелёгкое время судьба сводит юную девушку Рей и бывшего штурмовика Нового Порядка Финна с героями времён войны с Империей — Ханом Соло, Чубаккой и Королевой Леей. Вместе они должны дать бой Новому Порядку, однако настаёт тот момент, когда становится очевидно, что лишь джедаи могут остановить Сноука и Кайло Рена. И в галактике в живых остаётся только один…

Файл
Качество: BDRip (1080p)
Видео: MPEG-4 AVC, 11428 Кбит/с, 1920x800, 23.976 кадр/с
Аудио: Русский, казахский, английский (АС3, 6 ch, 640 Кбит/с)
Размер: 12.88 ГБ
Продолжительность: 02:18:07
Перевод: Дублированный
Субтитры: Русские, казахские, английские
Сохранены оригинальные чаптеры как на Blu-Ray.
Озвучивание - Дублированное (Лицензия)
Субтитры - Русские (Forced, Full), Казахские (Forced), Английские (Full)
В раздаче локализованный русский видеоряд.

x264

x264 [info]: frame I:1347 Avg QP:15.52 size:247790
x264 [info]: frame P:52270 Avg QP:18.10 size:104478
x264 [info]: frame B:145065 Avg QP:19.81 size: 41663
x264 [info]: consecutive B-frames: 5.0% 5.6% 15.8% 15.6% 15.4% 38.1% 3.4% 0.4% 0.3% 0.3%
x264 [info]: mb I I16..4: 34.2% 49.3% 16.5%
x264 [info]: mb P I16..4: 4.4% 20.6% 1.3% P16..4: 26.6% 33.5% 10.4% 1.5% 0.1% skip: 1.6%
x264 [info]: mb B I16..4: 0.5% 1.6% 0.1% B16..8: 43.9% 22.6% 3.7% direct: 7.3% skip:20.2% L0:47.1% L1:42.0% BI:10.9%
x264 [info]: 8x8 transform intra:74.9% inter:48.1%
x264 [info]: direct mvs spatial:98.8% temporal:1.2%
x264 [info]: coded y,uvDC,uvAC intra: 91.7% 92.6% 82.8% inter: 43.0% 44.1% 25.5%
x264 [info]: i16 v,h,dc,p: 14% 8% 34% 45%
x264 [info]: i8 v,h,dc,ddl,ddr,vr,hd,vl,hu: 6% 7% 12% 10% 14% 12% 14% 11% 14%
x264 [info]: i4 v,h,dc,ddl,ddr,vr,hd,vl,hu: 8% 8% 15% 8% 13% 12% 13% 10% 14%
x264 [info]: i8c dc,h,v,p: 54% 15% 12% 18%
x264 [info]: ref P L0: 52.4% 24.9% 13.0% 8.0% 1.7%
x264 [info]: ref B L0: 76.8% 16.4% 5.1% 1.7%
x264 [info]: ref B L1: 93.7% 6.3%
x264 [info]: kb/s:11429.14

Инфо-файл

Общее
Уникальный идентификатор : 200875698726379200350910323459103486969 (0x971F40988C0FC9C09AA7DB797D4973F9)
Полное имя : D:ЗагрузкиStar.Wars.The.Force.Awakens.Rus.2015.x264.BDRip.(1080p).ExKinoRay.mkv
Формат : Matroska
Версия формата : Version 2
Размер файла : 12,9 Гбайт
Продолжительность : 2 ч. 18 м.
Общий поток : 13,4 Мбит/сек
Название фильма : Звёздные войны: Пробуждение силы.2015.Rip by: ollan
Дата кодирования : UTC 2016-04-23 20:05:29
Программа кодирования : mkvmerge v5.6.0 ('Kenya Kane') built on May 27 2012 16:44:04
Библиотека кодирования : libebml v1.2.3 + libmatroska v1.3.0
Attachements : Cover - Star.Wars.VII..png
Видео
Идентификатор : 1
Формат : AVC
Формат/Информация : Advanced Video Codec
Профиль формата : High@L4.1
Параметр CABAC формата : Да
Параметр ReFrames формата : 5 кадров
Идентификатор кодека : V_MPEG4/ISO/AVC
Продолжительность : 2 ч. 18 м.
Битрейт : 11,4 Мбит/сек
Ширина : 1920 пикселей
Высота : 800 пикселей
Соотношение сторон : 2,40:1
Режим частоты кадров : Постоянный
Частота кадров : 23,976 (24000/1001) кадра/сек
Цветовое пространство : YUV
Субдискретизация насыщенности : 4:2:0
Битовая глубина : 8 бит
Тип развёртки : Прогрессивная
Бит/(Пиксели*Кадры) : 0.310
Размер потока : 10,8 Гбайт (84%)
Библиотека кодирования : x264 core 146 r2538 121396c
Настройки программы : cabac=1 / ref=5 / deblock=1:-3:-3 / analyse=0x3:0x133 / me=umh / subme=11 / psy=1 / psy_rd=1.00:0.05 / mixed_ref=1 / me_range=48 / chroma_me=1 / trellis=2 / 8x8dct=1 / cqm=0 / deadzone=21,11 / fast_pskip=0 / chroma_qp_offset=-3 / threads=12 / lookahead_threads=2 / sliced_threads=0 / nr=0 / decimate=0 / interlaced=0 / bluray_compat=0 / constrained_intra=0 / bframes=9 / b_pyramid=2 / b_adapt=2 / b_bias=0 / direct=3 / weightb=1 / open_gop=0 / weightp=2 / keyint=240 / keyint_min=23 / scenecut=40 / intra_refresh=0 / rc_lookahead=40 / rc=2pass / mbtree=0 / bitrate=11428 / ratetol=1.0 / qcomp=0.60 / qpmin=0 / qpmax=69 / qpstep=4 / cplxblur=20.0 / qblur=0.5 / vbv_maxrate=50000 / vbv_bufsize=62500 / nal_hrd=none / filler=0 / ip_ratio=1.40 / pb_ratio=1.30 / aq=1:1.00
Язык : Russian
Default : Да
Forced : Нет
Аудио #1
Идентификатор : 2
Формат : AC-3
Формат/Информация : Audio Coding 3
Расширение режима : CM (complete main)
Параметр Endianness формата : Big
Идентификатор кодека : A_AC3
Продолжительность : 2 ч. 18 м.
Вид битрейта : Постоянный
Битрейт : 640 Кбит/сек
Каналы : 6 каналов
Расположение каналов : Front: L C R, Side: L R, LFE
Частота : 48,0 КГц
Частота кадров : 31,250 кадров/сек (1536 spf)
Метод сжатия : С потерями
Размер потока : 632 Мбайт (5%)
Заголовок : Дублированый (Лицензия)
Язык : Russian
Default : Да
Forced : Нет
Аудио #2
Идентификатор : 3
Формат : AC-3
Формат/Информация : Audio Coding 3
Расширение режима : CM (complete main)
Параметр Endianness формата : Big
Идентификатор кодека : A_AC3
Продолжительность : 2 ч. 18 м.
Вид битрейта : Постоянный
Битрейт : 640 Кбит/сек
Каналы : 6 каналов
Расположение каналов : Front: L C R, Side: L R, LFE
Частота : 48,0 КГц
Частота кадров : 31,250 кадров/сек (1536 spf)
Метод сжатия : С потерями
Размер потока : 632 Мбайт (5%)
Заголовок : Дублированый (Лицензия)
Язык : Kazakh
Default : Нет
Forced : Нет
Аудио #3
Идентификатор : 4
Формат : AC-3
Формат/Информация : Audio Coding 3
Расширение режима : CM (complete main)
Параметр Endianness формата : Big
Идентификатор кодека : A_AC3
Продолжительность : 2 ч. 18 м.
Вид битрейта : Постоянный
Битрейт : 640 Кбит/сек
Каналы : 6 каналов
Расположение каналов : Front: L C R, Side: L R, LFE
Частота : 48,0 КГц
Частота кадров : 31,250 кадров/сек (1536 spf)
Метод сжатия : С потерями
Размер потока : 632 Мбайт (5%)
Язык : English
Default : Нет
Forced : Нет
Текст #1
Идентификатор : 5
Формат : UTF-8
Идентификатор кодека : S_TEXT/UTF8
Идентификатор кодека/Информация : UTF-8 Plain Text
Заголовок : Forced
Язык : Russian
Default : Да
Forced : Нет
Текст #2
Идентификатор : 6
Формат : UTF-8
Идентификатор кодека : S_TEXT/UTF8
Идентификатор кодека/Информация : UTF-8 Plain Text
Заголовок : Full
Язык : Russian
Default : Нет
Forced : Нет
Текст #3
Идентификатор : 7
Формат : UTF-8
Идентификатор кодека : S_TEXT/UTF8
Идентификатор кодека/Информация : UTF-8 Plain Text
Заголовок : Forced
Язык : Kazakh
Default : Нет
Forced : Нет
Текст #4
Идентификатор : 8
Формат : UTF-8
Идентификатор кодека : S_TEXT/UTF8
Идентификатор кодека/Информация : UTF-8 Plain Text
Заголовок : Full
Язык : English
Default : Нет
Forced : Нет
Меню
00:00:00.000 : ru:Chapter 01
00:00:09.259 : ru:Chapter 02
00:01:43.061 : ru:Chapter 03
00:03:51.856 : ru:Chapter 04
00:06:12.288 : ru:Chapter 05
00:09:33.948 : ru:Chapter 06
00:10:43.559 : ru:Chapter 07
00:12:35.713 : ru:Chapter 08
00:13:39.693 : ru:Chapter 09
00:14:48.220 : ru:Chapter 10
00:16:45.921 : ru:Chapter 11
00:18:04.583 : ru:Chapter 12
00:19:21.535 : ru:Chapter 13
00:21:26.618 : ru:Chapter 14
00:24:03.650 : ru:Chapter 15
00:26:47.022 : ru:Chapter 16
00:29:54.667 : ru:Chapter 17
00:31:49.324 : ru:Chapter 18
00:35:51.774 : ru:Chapter 19
00:36:40.615 : ru:Chapter 20
00:37:45.513 : ru:Chapter 21
00:40:19.250 : ru:Chapter 22
00:43:39.199 : ru:Chapter 23
00:45:29.560 : ru:Chapter 24
00:49:22.918 : ru:Chapter 25
00:51:19.951 : ru:Chapter 26
00:54:13.750 : ru:Chapter 27
00:59:48.793 : ru:Chapter 28
01:04:16.060 : ru:Chapter 29
01:08:37.238 : ru:Chapter 30
01:11:07.221 : ru:Chapter 31
01:15:16.386 : ru:Chapter 32
01:16:49.896 : ru:Chapter 33
01:19:37.522 : ru:Chapter 34
01:20:56.893 : ru:Chapter 35
01:25:36.172 : ru:Chapter 36
01:32:12.568 : ru:Chapter 37
01:35:29.014 : ru:Chapter 38
01:36:34.955 : ru:Chapter 39
01:39:28.629 : ru:Chapter 40
01:41:29.958 : ru:Chapter 41
01:42:57.504 : ru:Chapter 42
01:45:00.002 : ru:Chapter 43
01:50:33.710 : ru:Chapter 44
01:53:39.771 : ru:Chapter 45
01:55:22.165 : ru:Chapter 46
01:58:05.453 : ru:Chapter 47
02:01:05.591 : ru:Chapter 48
02:02:32.678 : ru:Chapter 49
02:07:07.578 : ru:Chapter 50
02:18:06.444 : ru:Chapter 51

Скриншоты



Rip by:
[Профиль] [ЛС]
Показать сообщения:    

Текущее время: Сегодня 21:02

Часовой пояс: GMT



Вы не можете начинать темы
Вы не можете отвечать на сообщения
Вы не можете редактировать свои сообщения
Вы не можете удалять свои сообщения
Вы не можете голосовать в опросах
Вы не можете прикреплять файлы к сообщениям
Вы не можете скачивать файлы