Звёздные войны: Пробуждение силы / Star Wars: Episode VII - The Force Awakens (2015) BDRip 720p | Лицензия

 
Автор Сообщение

BOSS ®

Пол:

Стаж: 2 года 2 месяца

Сообщений: 3751

Откуда: ODESSA



Награды: 20 (Подробнее)

Top Seeder 3 (Количество: 1) Mega Seeder 4 (Количество: 1) Mega Seeder 2 (Количество: 1)
Торрент-статистика

Создавать темы 23-Апр-2016 06:36

[Цитировать]

Звёздные войны: Пробуждение силы / Star Wars: Episode VII - The Force Awakens-
Год выхода: 2015
Выпущено: США / Bad Robot, Lucasfilm Ltd.
Жанр: фантастика, фэнтези, боевик, приключения
Продолжительность: 02:18:06
Перевод: Профессиональный (полное дублирование) | BD EUR
Субтитры: русские (полные, форсированные), английские
Оригинальная аудиодорожка: Английская-Режиссер:Джей Джей Абрамс / J.J. Abrams
В ролях:Джон Бойега, Дэйзи Ридли, Оскар Айзек, Адам Драйвер, Донал Глисон, Харрисон Форд, Марк Хэмилл, Кэрри Фишер, Макс фон Сюдов, Энди Серкис, Лупита Нионго, Энтони Дэниелс, Питер Мейхью, Гвендолин Кристи, Пип Андерсон, Саймон Пегг, Киран Шах, Саша Фрост, Пип Торренс, Эндрю Джек-О фильме:
Через тридцать лет после гибели Дарта Вейдера и Императора галактика по-прежнему в опасности. Государственное образование Первый Орден во главе с их таинственным верховным лидером Сноуком и его правой рукой Кайло Реном идёт по стопам Империи, пытаясь захватить всю власть. В это нелёгкое время судьба сводит юную девушку Рей и бывшего штурмовика Первого Ордена Финна с героями времён войны с Империей — Ханом Соло, Чубаккой и генералом Леей. Вместе они должны дать бой Первому Ордену, однако настаёт тот момент, когда становится очевидно, что лишь джедаи могут остановить Сноука и Кайло Рена. И в галактике в живых остаётся только один…-Качество: BDRip 720p | L | Локализованный русский видеоряд
Формат: MKV
Видео: MPEG-4 AVC Video ~7619 kbps 1280x534 / 23,976 fps / 2.40:1 / High Profile 4.1
Аудио:
Русский: 48 kHz, AC3 Dolby Digital, 3/2 (L,C,R,l,r) + LFE ch, ~640 kbps
Английский: 48 kHz, DTS, 3/2 (L,C,R,l,r) + LFE ch, ~1509.00 kbps avg
Формат субтитров: softsub (SRT)

Скриншоты


MediaInfo

Уникальный идентификатор : 192247639791963374027738884672971361434 (0x90A18C72723E14E696E54C291EBC4C9A)
Полное имя : E:V.tempStar Wars Episode VII - The Force Awakens 2015 1080p BRA Blu-ray AVC DTS-HD MA 7.1-HighvoltageStar.Wars.Episode.VII.The.Force.Awakens.2015.BluRay.720p.DD5.1.x264-L.mkv
Формат : Matroska
Версия формата : Version 4 / Version 2
Размер файла : 9,43 Гбайт
Продолжительность : 2 ч. 18 м.
Общий поток : 9771 Кбит/сек
Название фильма : Star.Wars.Episode.VII.The.Force.Awakens.2015.BluRay.720p.DD5.1.x264-L
Дата кодирования : UTC 2016-04-23 05:21:21
Программа кодирования : mkvmerge v7.7.0 ('Six Voices') 32bit built on Feb 28 2015 23:23:00
Библиотека кодирования : libebml v1.3.1 + libmatroska v1.4.2
Обложка : Yes
Attachments : cover.jpg
Видео
Идентификатор : 1
Формат : AVC
Формат/Информация : Advanced Video Codec
Профиль формата : High@L4.1
Параметр CABAC формата : Да
Параметр ReFrames формата : 12 кадров
Идентификатор кодека : V_MPEG4/ISO/AVC
Продолжительность : 2 ч. 18 м.
Битрейт : 7619 Кбит/сек
Ширина : 1280 пикселей
Высота : 534 пикселя
Соотношение сторон : 2,40:1
Режим частоты кадров : Постоянный
Частота кадров : 23,976 (24000/1001) кадра/сек
Цветовое пространство : YUV
Субдискретизация насыщенности : 4:2:0
Битовая глубина : 8 бит
Тип развёртки : Прогрессивная
Бит/(Пиксели*Кадры) : 0.465
Размер потока : 7,35 Гбайт (78%)
Заголовок : Star.Wars.Episode.VII.The.Force.Awakens.2015.BluRay.720p.DD5.1.x264-L
Библиотека кодирования : x264 core 148 r2638 7599210
Настройки программы : cabac=1 / ref=12 / deblock=1:-2:-1 / analyse=0x3:0x133 / me=umh / subme=11 / psy=1 / psy_rd=1.05:0.10 / mixed_ref=1 / me_range=32 / chroma_me=1 / trellis=2 / 8x8dct=1 / cqm=0 / deadzone=21,11 / fast_pskip=0 / chroma_qp_offset=-4 / threads=6 / lookahead_threads=1 / sliced_threads=0 / nr=0 / decimate=1 / interlaced=0 / bluray_compat=0 / constrained_intra=0 / bframes=8 / b_pyramid=2 / b_adapt=2 / b_bias=0 / direct=1 / weightb=1 / open_gop=0 / weightp=2 / keyint=230 / keyint_min=21 / scenecut=40 / intra_refresh=0 / rc_lookahead=60 / rc=crf / mbtree=0 / crf=16.0 / qcomp=0.70 / qpmin=0 / qpmax=69 / qpstep=4 / vbv_maxrate=50000 / vbv_bufsize=60000 / crf_max=0.0 / nal_hrd=none / filler=0 / ip_ratio=1.35 / pb_ratio=1.25 / aq=2:0.90
Язык : English
Default : Да
Forced : Нет
Аудио #1
Идентификатор : 2
Формат : AC-3
Формат/Информация : Audio Coding 3
Расширение режима : CM (complete main)
Параметр Endianness формата : Big
Идентификатор кодека : A_AC3
Продолжительность : 2 ч. 18 м.
Вид битрейта : Постоянный
Битрейт : 640 Кбит/сек
Каналы : 6 каналов
Расположение каналов : Front: L C R, Side: L R, LFE
Частота : 48,0 КГц
Частота кадров : 31,250 кадров/сек (1536 spf)
Метод сжатия : С потерями
Размер потока : 632 Мбайт (7%)
Заголовок : DD5.1@640kbps
Язык : Russian
Default : Да
Forced : Нет
Аудио #2
Идентификатор : 3
Формат : DTS
Формат/Информация : Digital Theater Systems
Режим : 16
Параметр Endianness формата : Big
Идентификатор кодека : A_DTS
Продолжительность : 2 ч. 18 м.
Вид битрейта : Постоянный
Битрейт : 1509 Кбит/сек
Каналы : 6 каналов
Расположение каналов : Front: L C R, Side: L R, LFE
Частота : 48,0 КГц
Частота кадров : 93,750 кадра/сек (512 spf)
Битовая глубина : 24 бит
Метод сжатия : С потерями
Размер потока : 1,46 Гбайт (15%)
Заголовок : DTS5.1@1509kbps
Язык : English
Default : Нет
Forced : Нет
Текст #1
Идентификатор : 4
Формат : UTF-8
Идентификатор кодека : S_TEXT/UTF8
Идентификатор кодека/Информация : UTF-8 Plain Text
Продолжительность : 58 м.
Битрейт : 1 бит/сек
Count of elements : 10
Размер потока : 470 байт (0%)
Заголовок : Forced
Язык : Russian
Default : Да
Forced : Нет
Текст #2
Идентификатор : 5
Формат : UTF-8
Идентификатор кодека : S_TEXT/UTF8
Идентификатор кодека/Информация : UTF-8 Plain Text
Продолжительность : 2 ч. 3 м.
Битрейт : 67 бит/сек
Count of elements : 1420
Размер потока : 61,2 Кбайт (0%)
Язык : Russian
Default : Нет
Forced : Нет
Текст #3
Идентификатор : 6
Формат : UTF-8
Идентификатор кодека : S_TEXT/UTF8
Идентификатор кодека/Информация : UTF-8 Plain Text
Продолжительность : 2 ч. 0 м.
Битрейт : 40 бит/сек
Count of elements : 1403
Размер потока : 35,9 Кбайт (0%)
Язык : English
Default : Нет
Forced : Нет
Текст #4
Идентификатор : 7
Формат : UTF-8
Идентификатор кодека : S_TEXT/UTF8
Идентификатор кодека/Информация : UTF-8 Plain Text
Продолжительность : 2 ч. 6 м.
Битрейт : 50 бит/сек
Count of elements : 1778
Размер потока : 47,1 Кбайт (0%)
Заголовок : SDH
Язык : English
Default : Нет
Forced : Нет
Меню
00:00:00.000 : en:00:00:00.000
00:00:09.259 : en:00:00:09.259
00:01:43.061 : en:00:01:43.061
00:03:51.857 : en:00:03:51.857
00:06:12.289 : en:00:06:12.289
00:09:33.948 : en:00:09:33.948
00:10:43.560 : en:00:10:43.560
00:12:35.713 : en:00:12:35.713
00:13:39.694 : en:00:13:39.694
00:14:48.221 : en:00:14:48.221
00:16:45.922 : en:00:16:45.922
00:18:04.583 : en:00:18:04.583
00:19:21.535 : en:00:19:21.535
00:21:26.619 : en:00:21:26.619
00:24:03.651 : en:00:24:03.651
00:26:47.022 : en:00:26:47.022
00:29:54.668 : en:00:29:54.668
00:31:49.324 : en:00:31:49.324
00:35:51.775 : en:00:35:51.775
00:36:40.615 : en:00:36:40.615
00:37:45.513 : en:00:37:45.513
00:40:19.250 : en:00:40:19.250
00:43:39.200 : en:00:43:39.200
00:45:29.560 : en:00:45:29.560
00:49:22.918 : en:00:49:22.918
00:51:19.952 : en:00:51:19.952
00:54:13.750 : en:00:54:13.750
00:59:48.794 : en:00:59:48.794
01:04:16.061 : en:01:04:16.061
01:08:37.238 : en:01:08:37.238
01:11:07.221 : en:01:11:07.221
01:15:16.387 : en:01:15:16.387
01:16:49.897 : en:01:16:49.897
01:19:37.523 : en:01:19:37.523
01:20:56.894 : en:01:20:56.894
01:25:36.173 : en:01:25:36.173
01:32:12.569 : en:01:32:12.569
01:35:29.015 : en:01:35:29.015
01:36:34.956 : en:01:36:34.956
01:39:28.629 : en:01:39:28.629
01:41:29.959 : en:01:41:29.959
01:42:57.505 : en:01:42:57.505
01:45:00.002 : en:01:45:00.002
01:50:33.710 : en:01:50:33.710
01:53:39.771 : en:01:53:39.771
01:55:22.165 : en:01:55:22.165
01:58:05.453 : en:01:58:05.453
02:01:05.592 : en:02:01:05.592
02:02:32.679 : en:02:02:32.679
02:07:07.578 : en:02:07:07.578
x264 [info]: frame I:1714 Avg QP:14.38 size:139276 PSNR Mean Y:48.39 U:51.18 V:52.20 Avg:49.21 Global:48.88
x264 [info]: frame P:44795 Avg QP:15.76 size: 67501 PSNR Mean Y:46.88 U:49.64 V:50.80 Avg:47.72 Global:47.29
x264 [info]: frame B:152172 Avg QP:17.81 size: 30386 PSNR Mean Y:45.73 U:48.44 V:50.18 Avg:46.59 Global:46.17
x264 [info]: consecutive B-frames: 2.8% 3.4% 8.0% 19.6% 18.3% 37.8% 6.6% 1.6% 1.9%
[Профиль] [ЛС]
Показать сообщения:    

Текущее время: Сегодня 12:10

Часовой пояс: GMT



Вы не можете начинать темы
Вы не можете отвечать на сообщения
Вы не можете редактировать свои сообщения
Вы не можете удалять свои сообщения
Вы не можете голосовать в опросах
Вы не можете прикреплять файлы к сообщениям
Вы не можете скачивать файлы