Звёздные войны: Пробуждение силы / Star Wars: Episode VII - The Force Awakens (2015) BDRip-AVC | Лицензия

 
Автор Сообщение

достали все ®

Пол:

Стаж: 1 год 8 месяцев

Сообщений: 6600



Награды: 12 (Подробнее)

За внесенный вклад в развитие сайта (Количество: 1) Top Releaser 3 (Количество: 1) Top Releaser 4 (Количество: 1)
Торрент-статистика

Создавать темы 23-Апр-2016 02:54

[Цитировать]

Информация о фильме
Название: Звёздные войны: Пробуждение силы
Оригинальное название: Star Wars: The Force Awakens
Год выпуска: 2015
Жанр: Фантастика, фэнтези, боевик, приключения
Режиссер: Джей Джей Абрамс
В ролях: Джон Бойега, Дэйзи Ридли, Оскар Айзек, Адам Драйвер, Донал Глисон, Харрисон Форд, Марк Хэмилл, Кэрри Фишер, Макс фон Сюдов, Энди Серкис, Лупита Нионго, Энтони Дэниелс, Питер Мейхью, Гвендолин Кристи, Пип Андерсон, Саймон Пегг, Киран Шах, Саша Фрост, Пип Торренс, Эндрю Джек
О фильме:
Через тридцать лет после гибели Дарта Вейдера и Императора галактика по-прежнему в опасности. Государственное образование Новый Порядок во главе с их таинственным верховным лидером Сноуком и его правой рукой Кайло Реном идёт по стопам Империи, пытаясь захватить всю власть. В это нелёгкое время судьба сводит юную девушку Рей и бывшего штурмовика Нового Порядка Финна с героями времён войны с Империей — Ханом Соло, Чубаккой и Королевой Леей. Вместе они должны дать бой Новому Порядку, однако настаёт тот момент, когда становится очевидно, что лишь джедаи могут остановить Сноука и Кайло Рена. И в галактике в живых остаётся только один…
Выпущено: США, Bad Robot, Lucasfilm Ltd., Truenorth Productions
Продолжительность: 02:18:06
Перевод: Дублированный
Субтитры: Русские, английские
Файл
Кодек: MPEG-4 AVC
Качество: BDRip-AVC
Видео: 1032x430 3050, кб/c
Звук: Русский, английский (АС3, 6 ch, 448 Кбит/с)

Скриншоты


Медиа-Инфо

Общее
Уникальный идентификатор : 179660470046825277149623865908139269488 (0x872959108981D03CAFA0F72E4B721D70)
Полное имя : G:Zvezdnye.vojny.Probuzhdenie.sily.2015.x264.BDRip.(AVC).ExKinoRay.mkv
Формат : Matroska
Версия формата : Version 2
Размер файла : 3,81 Гбайт
Продолжительность : 2 ч. 18 м.
Общий поток : 3948 Кбит/сек
Дата кодирования : UTC 2016-04-22 23:12:01
Программа кодирования : mkvmerge v7.8.0 ('River Man') 32bit built on Apr 3 2015 12:11:22
Библиотека кодирования : libebml v1.3.1 + libmatroska v1.4.2
Видео
Идентификатор : 1
Формат : AVC
Формат/Информация : Advanced Video Codec
Профиль формата : High@L4.1
Параметр CABAC формата : Да
Параметр ReFrames формата : 14 кадров
Идентификатор кодека : V_MPEG4/ISO/AVC
Продолжительность : 2 ч. 18 м.
Битрейт : 3050 Кбит/сек
Ширина : 1032 пикселя
Высота : 430 пикселей
Соотношение сторон : 2,40:1
Режим частоты кадров : Постоянный
Частота кадров : 23,976 кадра/сек
Цветовое пространство : YUV
Субдискретизация насыщенности : 4:2:0
Битовая глубина : 8 бит
Тип развёртки : Прогрессивная
Бит/(Пиксели*Кадры) : 0.287
Размер потока : 2,87 Гбайт (75%)
Библиотека кодирования : x264 core 146 r2538 121396c
Настройки программы : cabac=1 / ref=14 / deblock=1:-3:-3 / analyse=0x3:0x113 / me=umh / subme=11 / psy=1 / psy_rd=1.00:0.15 / mixed_ref=1 / me_range=32 / chroma_me=1 / trellis=2 / 8x8dct=1 / cqm=0 / deadzone=21,11 / fast_pskip=0 / chroma_qp_offset=-3 / threads=6 / lookahead_threads=1 / sliced_threads=0 / nr=0 / decimate=0 / interlaced=0 / bluray_compat=0 / constrained_intra=0 / bframes=16 / b_pyramid=2 / b_adapt=2 / b_bias=0 / direct=3 / weightb=1 / open_gop=0 / weightp=2 / keyint=240 / keyint_min=23 / scenecut=40 / intra_refresh=0 / rc_lookahead=40 / rc=2pass / mbtree=0 / bitrate=3050 / ratetol=1.0 / qcomp=0.63 / qpmin=0 / qpmax=39 / qpstep=4 / cplxblur=20.0 / qblur=0.5 / vbv_maxrate=50000 / vbv_bufsize=62500 / nal_hrd=none / filler=0 / ip_ratio=1.40 / pb_ratio=1.30 / aq=3:1.00
Язык : English
Default : Да
Forced : Нет
Основные цвета : BT.709
Характеристики трансфера : BT.709
Коэффициенты матрицы : BT.709
colour_range : Limited
Аудио #1
Идентификатор : 2
Формат : AC-3
Формат/Информация : Audio Coding 3
Расширение режима : CM (complete main)
Параметр Endianness формата : Big
Идентификатор кодека : A_AC3
Продолжительность : 2 ч. 18 м.
Вид битрейта : Постоянный
Битрейт : 448 Кбит/сек
Каналы : 6 каналов
Расположение каналов : Front: L C R, Side: L R, LFE
Частота : 48,0 КГц
Битовая глубина : 16 бит
Метод сжатия : С потерями
Размер потока : 443 Мбайт (11%)
Язык : Russian
Default : Да
Forced : Да
Аудио #2
Идентификатор : 3
Формат : AC-3
Формат/Информация : Audio Coding 3
Расширение режима : CM (complete main)
Параметр Endianness формата : Big
Идентификатор кодека : A_AC3
Продолжительность : 2 ч. 18 м.
Вид битрейта : Постоянный
Битрейт : 448 Кбит/сек
Каналы : 6 каналов
Расположение каналов : Front: L C R, Side: L R, LFE
Частота : 48,0 КГц
Битовая глубина : 16 бит
Метод сжатия : С потерями
Размер потока : 443 Мбайт (11%)
Язык : English
Default : Нет
Forced : Да
Текст #1
Идентификатор : 4
Формат : UTF-8
Идентификатор кодека : S_TEXT/UTF8
Идентификатор кодека/Информация : UTF-8 Plain Text
Заголовок : Forced
Язык : Russian
Default : Да
Forced : Да
Текст #2
Идентификатор : 5
Формат : UTF-8
Идентификатор кодека : S_TEXT/UTF8
Идентификатор кодека/Информация : UTF-8 Plain Text
Язык : Russian
Default : Нет
Forced : Да
Текст #3
Идентификатор : 6
Формат : UTF-8
Идентификатор кодека : S_TEXT/UTF8
Идентификатор кодека/Информация : UTF-8 Plain Text
Заголовок : SDH
Язык : English
Default : Нет
Forced : Да
Текст #4
Идентификатор : 7
Формат : UTF-8
Идентификатор кодека : S_TEXT/UTF8
Идентификатор кодека/Информация : UTF-8 Plain Text
Язык : English
Default : Нет
Forced : Да
Меню
00:00:00.000 : :00:00:00.000
00:00:09.259 : :00:00:09.259
00:01:43.061 : :00:01:43.061
00:03:51.857 : :00:03:51.857
00:06:12.289 : :00:06:12.289
00:09:33.948 : :00:09:33.948
00:10:43.560 : :00:10:43.560
00:12:35.713 : :00:12:35.713
00:13:39.694 : :00:13:39.694
00:14:48.221 : :00:14:48.221
00:16:45.922 : :00:16:45.922
00:18:04.583 : :00:18:04.583
00:19:21.535 : :00:19:21.535
00:21:26.619 : :00:21:26.619
00:24:03.651 : :00:24:03.651
00:26:47.022 : :00:26:47.022
00:29:54.668 : :00:29:54.668
00:31:49.324 : :00:31:49.324
00:35:51.775 : :00:35:51.775
00:36:40.615 : :00:36:40.615
00:37:45.513 : :00:37:45.513
00:40:19.250 : :00:40:19.250
00:43:39.200 : :00:43:39.200
00:45:29.560 : :00:45:29.560
00:49:22.918 : :00:49:22.918
00:51:19.952 : :00:51:19.952
00:54:13.750 : :00:54:13.750
00:59:48.794 : :00:59:48.794
01:04:16.061 : :01:04:16.061
01:08:37.238 : :01:08:37.238
01:11:07.220 : :01:11:07.221
01:15:16.387 : :01:15:16.387
01:16:49.897 : :01:16:49.897
01:19:37.523 : :01:19:37.523
01:20:56.894 : :01:20:56.894
01:25:36.173 : :01:25:36.173
01:32:12.569 : :01:32:12.569
01:35:29.015 : :01:35:29.015
01:36:34.956 : :01:36:34.956
01:39:28.629 : :01:39:28.629
01:41:29.959 : :01:41:29.959
01:42:57.505 : :01:42:57.505
01:45:00.002 : :01:45:00.002
01:50:33.710 : :01:50:33.710
01:53:39.771 : :01:53:39.771
01:55:22.165 : :01:55:22.165
01:58:05.453 : :01:58:05.453
02:01:05.592 : :02:01:05.592
02:02:32.679 : :02:02:32.679
02:07:07.578 : :02:07:07.578
Релиз от:
Автор Релиза:
[Профиль] [ЛС]
Показать сообщения:    

Текущее время: Сегодня 03:22

Часовой пояс: GMT



Вы не можете начинать темы
Вы не можете отвечать на сообщения
Вы не можете редактировать свои сообщения
Вы не можете удалять свои сообщения
Вы не можете голосовать в опросах
Вы не можете прикреплять файлы к сообщениям
Вы не можете скачивать файлы