Звёздные войны: Пробуждение силы / Star Wars: Episode VII - The Force Awakens (2015) BDRip 720p | Лицензия

 
Автор Сообщение

BOSS ®

Пол:

Стаж: 2 года 1 месяц

Сообщений: 3729

Откуда: ODESSA



Награды: 20 (Подробнее)

Top Keeper 3 (Количество: 1) Top Seeder 4 (Количество: 1) Top Seeder 5 (Количество: 1)
Торрент-статистика

Создавать темы 22-Апр-2016 17:48

[Цитировать]

Информация о фильме
Название: Звёздные войны: Пробуждение силы
Оригинальное название: Star Wars: Episode VII - The Force Awakens
Год выхода: 2015
Жанр: фантастика, фэнтези, боевик, приключения
Режиссер: Джей Джей Абрамс
В ролях: Джон Бойега, Дэйзи Ридли, Оскар Айзек, Адам Драйвер, Донал Глисон, Харрисон Форд, Марк Хэмилл, Кэрри Фишер, Макс фон Сюдов, Энди Серкис
О фильме:
Через тридцать лет после гибели Дарта Вейдера и Императора галактика по-прежнему в опасности. Государственное образование Первый Орден во главе с таинственным верховным лидером Сноуком и его правой рукой Кайло Реном идёт по стопам Империи, пытаясь захватить всю власть. В это нелёгкое время судьба сводит юную девушку Рей и бывшего штурмовика Первого Ордена Финна с героями войны с Империей — Ханом Соло, Чубаккой и генералом Леей. Вместе они должны дать бой Первому Ордену, однако настаёт тот момент, когда становится очевидно, что лишь джедаи могут остановить Сноука и Кайло Рена.

Страна: США
Студия: Bad Robot, Lucasfilm Ltd., Truenorth Productions
Продолжительность: 02:18:06
Перевод: Профессиональный (дублированный) Blu-ray EUR
Файл
Формат: Matroska
Видео: 1280x534 at 23.976 fps, x264@L4.1, ~6490 kbps avg
Аудио#1: Russian: 48 kHz, AC3, 3/2 (L,C,R,l,r) + LFE ch, ~640.00 kbps avg |Дубляж, Blu-ray EUR|
Аудио#2: English: 48 kHz, DTS, 3/2 (L,C,R,l,r) + LFE ch, ~1509.00 kbps avg
Субтитры: Russian (Forced), Russian, English, English (SDH)
***Сохранены оригинальные главы как на Blu-ray.
***Видеоряд от ViSUM.

MI

Общее
Уникальный идентификатор : 235979766098850666624275892943693652020 (0xB1880CBE60977CFFBC6F2803BAE5A034)
Полное имя : Star.Wars.Episode.VII.The.Force.Awakens.2015.BluRay.720p.x264.Rus.Eng.Subs-ViSUM.mkv
Формат : Matroska
Версия формата : Version 2
Размер файла : 8,82 Гбайт
Продолжительность : 2 ч. 18 м.
Общий поток : 9147 Кбит/сек
Дата кодирования : UTC 2016-04-22 17:10:10
Программа кодирования : mkvmerge v7.9.0 ('Birds') 64bit
Библиотека кодирования : libebml v1.3.1 + libmatroska v1.4.2
Видео
Идентификатор : 1
Формат : AVC
Формат/Информация : Advanced Video Codec
Профиль формата : High@L4.1
Параметр CABAC формата : Да
Параметр ReFrames формата : 9 кадров
Идентификатор кодека : V_MPEG4/ISO/AVC
Продолжительность : 2 ч. 18 м.
Битрейт : 6496 Кбит/сек
Ширина : 1280 пикселей
Высота : 534 пикселя
Соотношение сторон : 2,40:1
Режим частоты кадров : Постоянный
Частота кадров : 23,976 (24000/1001) кадра/сек
Цветовое пространство : YUV
Субдискретизация насыщенности : 4:2:0
Битовая глубина : 8 бит
Тип развёртки : Прогрессивная
Бит/(Пиксели*Кадры) : 0.396
Размер потока : 6,27 Гбайт (71%)
Библиотека кодирования : x264 core 148 r2638+53 bb29004 t_mod_Custom [8-bit@all X86_64]
Настройки программы : cabac=1 / ref=9 / deblock=1:-3:-3 / analyse=0x3:0x113 / me=tesa / subme=11 / psy=1 / fade_compensate=0.00 / psy_rd=0.90:0.00 / mixed_ref=1 / me_range=24 / chroma_me=1 / trellis=2 / 8x8dct=1 / cqm=0 / deadzone=21,11 / fast_pskip=1 / chroma_qp_offset=-2 / threads=12 / lookahead_threads=2 / sliced_threads=0 / nr=0 / decimate=1 / interlaced=0 / bluray_compat=0 / constrained_intra=0 / fgo=0 / bframes=8 / b_pyramid=2 / b_adapt=2 / b_bias=0 / direct=3 / weightb=1 / open_gop=0 / weightp=2 / keyint=240 / keyint_min=23 / scenecut=40 / intra_refresh=0 / rc_lookahead=100 / rc=crf / mbtree=0 / crf=16.2500 / qcomp=0.60 / qpmin=0:0:0 / qpmax=69:69:69 / qpstep=4 / vbv_maxrate=62500 / vbv_bufsize=78125 / crf_max=0.0 / nal_hrd=none / filler=0 / ip_ratio=1.40 / pb_ratio=1.30 / aq=3:0.85 / aq-sensitivity=10.00 / aq-factor=1.00:1.00:1.00 / aq2=0 / aq3=0
Default : Да
Forced : Нет
Аудио #1
Идентификатор : 2
Формат : AC-3
Формат/Информация : Audio Coding 3
Расширение режима : CM (complete main)
Параметр Endianness формата : Big
Идентификатор кодека : A_AC3
Продолжительность : 2 ч. 18 м.
Вид битрейта : Постоянный
Битрейт : 640 Кбит/сек
Каналы : 6 каналов
Расположение каналов : Front: L C R, Side: L R, LFE
Частота : 48,0 КГц
Частота кадров : 31,250 кадров/сек (1536 spf)
Метод сжатия : С потерями
Размер потока : 632 Мбайт (7%)
Заголовок : BD EUR
Язык : Russian
Default : Да
Forced : Нет
Аудио #2
Идентификатор : 3
Формат : DTS
Формат/Информация : Digital Theater Systems
Режим : 16
Параметр Endianness формата : Big
Идентификатор кодека : A_DTS
Продолжительность : 2 ч. 18 м.
Вид битрейта : Постоянный
Битрейт : 1509 Кбит/сек
Каналы : 6 каналов
Расположение каналов : Front: L C R, Side: L R, LFE
Частота : 48,0 КГц
Частота кадров : 93,750 кадра/сек (512 spf)
Битовая глубина : 24 бит
Метод сжатия : С потерями
Размер потока : 1,46 Гбайт (16%)
Заголовок : English DTS 5.1@1 509 Kbps
Язык : English
Default : Нет
Forced : Нет
Аудио #3
Идентификатор : 4
Формат : AC-3
Формат/Информация : Audio Coding 3
Профиль формата : Dolby Digital
Расширение режима : CM (complete main)
Параметр Endianness формата : Big
Идентификатор кодека : A_AC3
Продолжительность : 2 ч. 18 м.
Вид битрейта : Постоянный
Битрейт : 320 Кбит/сек
Каналы : 2 канала
Расположение каналов : Front: L R
Частота : 48,0 КГц
Частота кадров : 31,250 кадров/сек (1536 spf)
Метод сжатия : С потерями
Размер потока : 316 Мбайт (3%)
Заголовок : Commentary AC3 2.0 @ 320 Kbps
Язык : English
Default : Нет
Forced : Нет
Текст #1
Идентификатор : 5
Формат : UTF-8
Идентификатор кодека : S_TEXT/UTF8
Идентификатор кодека/Информация : UTF-8 Plain Text
Язык : Russian
Default : Да
Forced : Нет
Текст #2
Идентификатор : 6
Формат : UTF-8
Идентификатор кодека : S_TEXT/UTF8
Идентификатор кодека/Информация : UTF-8 Plain Text
Язык : Russian
Default : Нет
Forced : Нет
Текст #3
Идентификатор : 7
Формат : UTF-8
Идентификатор кодека : S_TEXT/UTF8
Идентификатор кодека/Информация : UTF-8 Plain Text
Язык : Romanian
Default : Нет
Forced : Нет
Текст #4
Идентификатор : 8
Формат : UTF-8
Идентификатор кодека : S_TEXT/UTF8
Идентификатор кодека/Информация : UTF-8 Plain Text
Язык : English
Default : Нет
Forced : Нет
Текст #5
Идентификатор : 9
Формат : UTF-8
Идентификатор кодека : S_TEXT/UTF8
Идентификатор кодека/Информация : UTF-8 Plain Text
Заголовок : SDH
Язык : English
Default : Нет
Forced : Нет
Меню #1
00:00:00.000 : en:Opening Logo
00:00:09.259 : en:The Force Awakens
00:01:43.061 : en:The First Order Approaches
00:03:51.857 : en:Village Raid
00:06:12.289 : en:Kylo Ren
00:09:33.948 : en:FN-2187
00:10:43.560 : en:Rey
00:12:35.713 : en:Niima Outpost
00:13:39.694 : en:Rey at Home
00:14:48.221 : en:Saving BB-8
00:16:45.922 : en:Interrogation
00:18:04.583 : en:Unkar's Offer
00:19:21.535 : en:Jailbreak
00:21:26.619 : en:TIE Gighter Escape
00:24:03.651 : en:Marooned on Jakku
00:26:47.022 : en:Crossing Paths
00:29:54.668 : en:Marketplace Chase
00:31:49.324 : en:The Falcon Flies Again
00:35:51.775 : en:Introductions
00:36:40.615 : en:Kylo Is Updated
00:37:45.513 : en:Fixing the Falcon
00:40:19.250 : en:Chewie, We're Home
00:43:39.200 : en:Corellion Stand
00:45:29.560 : en:Rathtar Mayhem
00:49:22.918 : en:Supreme Leader
00:51:19.952 : en:It's All True
00:54:13.750 : en:Meeting Maz
00:59:48.794 : en:Discussions of Destinies
01:04:16.061 : en:Visions in the Force
01:08:37.238 : en:Starkiller
01:11:07.221 : en:First Order Invasion
01:15:16.387 : en:Resistance to the Rescue
01:16:49.897 : en:Kylo Finds Rey
01:19:37.523 : en:Reunion
01:20:56.894 : en:Resistance Base
01:25:36.173 : en:Rey Imprisoned
01:32:12.569 : en:Resistance Briefing
01:35:29.015 : en:Starkiller Landing
01:36:34.956 : en:Base Infiltration
01:39:28.629 : en:X-Wing Attack
01:41:29.959 : en:Rejoining Rey
01:42:57.505 : en:Into The Oscillator
01:45:00.002 : en:Father and Son
01:50:33.710 : en:Dark Forest
01:53:39.771 : en:Oscillator Breached
01:55:22.165 : en:Forest Duel
01:58:05.453 : en:Cataclysm
02:01:05.592 : en:Made Whole
02:02:32.679 : en:Finding the Master
02:07:07.578 : en:End Credits

Скриншоты


[Профиль] [ЛС]
Показать сообщения:    

Текущее время: Сегодня 20:57

Часовой пояс: GMT



Вы не можете начинать темы
Вы не можете отвечать на сообщения
Вы не можете редактировать свои сообщения
Вы не можете удалять свои сообщения
Вы не можете голосовать в опросах
Вы не можете прикреплять файлы к сообщениям
Вы не можете скачивать файлы