Звёздные войны: Пробуждение силы / Star Wars: Episode VII - The Force Awakens (2015) BDRemux 1080p | iTunes

 
Автор Сообщение

Russian Mafia ®

Пол:

Стаж: 1 год 8 месяцев

Сообщений: 4252



Награды: 10 (Подробнее)

Mega Seeder 5 (Количество: 1) Mega Seeder 3 (Количество: 1) Mega Seeder 1 (Количество: 1)
Торрент-статистика

Создавать темы 01-Апр-2016 07:51

[Цитировать]

Информация о фильме
Название: Звёздные войны: Пробуждение силы
Оригинальное название: Star Wars: Episode VII - The Force Awakens
Год выхода: 2015
Жанр: Фантастика, фэнтези, боевик, приключения
Режиссер: Джей Джей Абрамс
В ролях: Джон Бойега, Дэйзи Ридли, Оскар Айзек, Адам Драйвер, Донал Глисон, Харрисон Форд, Марк Хэмилл, Кэрри Фишер, Макс фон Сюдов, Энди Серкис, Лупита Нионго, Энтони Дэниелс, Питер Мейхью, Гвендолин Кристи, Пип Андерсон, Саймон Пегг, Киран Шах, Саша Фрост, Пип Торренс, Эндрю Джек
О фильме:
Через тридцать лет после гибели Дарта Вейдера и Императора галактика по-прежнему в опасности. Государственное образование Новый Порядок во главе с их таинственным верховным лидером Сноуком и его правой рукой Кайло Реном идёт по стопам Империи, пытаясь захватить всю власть. В это нелёгкое время судьба сводит юную девушку Рей и бывшего штурмовика Нового Порядка Финна с героями времён войны с Империей — Ханом Соло, Чубаккой и Королевой Леей. Вместе они должны дать бой Новому Порядку, однако настаёт тот момент, когда становится очевидно, что лишь джедаи могут остановить Сноука и Кайло Рена. И в галактике в живых остаётся только один…

Страна: США
Студия: Bad Robot, Lucasfilm Ltd., Truenorth Productions
Продолжительность: 02:18:06
Перевод: Дублированный | iTunes Russia
Файл
Кодек: MPEG-4
Качество: BDRemux 1080p
Видео: 1920x1080, 29.9 Mbit/s, 23.976 fps
Звук:
Аудио #01: 48 kHz, AC3, 5.1, 384 Kbps | Дублированный, iTunes Russia |
Аудио #02: 48 kHz, DTS-HD MA, 7.1, 5194 Kbps | Оригинал |
Субтитры: Русские (forced), русские (full, iTunes), английские
Релиз от:
Примечание: Без рекламы.

Media-info

Формат : Matroska
Версия формата : Version 4 / Version 2
Размер файла : 34,2 Гбайт
Продолжительность : 2 ч. 18 м.
Режим общего битрейта : Переменный
Общий поток : 35,5 Мбит/сек
Название фильма : Star.Wars.Episode.VII.The.Force.Awakens..2015..BDREMUX.1080p (S)
Дата кодирования : UTC 2016-03-31 23:10:49
Программа кодирования : mkvmerge v8.3.0 ('Over the Horizon') 64bit
Библиотека кодирования : libebml v1.3.1 + libmatroska v1.4.2
Обложка : Yes
Attachments : cover_land.jpg / small_cover.jpg / small_cover_land.jpg / cover.jpg / cover.png
Видео
Идентификатор : 1
Формат : AVC
Формат/Информация : Advanced Video Codec
Профиль формата : High@L4.1
Параметр CABAC формата : Да
Параметр ReFrames формата : 4 кадра
Параметр GOP формата : M=1, N=12
Идентификатор кодека : V_MPEG4/ISO/AVC
Продолжительность : 2 ч. 18 м.
Вид битрейта : Переменный
Битрейт : 29,9 Мбит/сек
Максимальный битрейт : 34,0 Мбит/сек
Ширина : 1920 пикселей
Высота : 1080 пикселей
Соотношение сторон : 16:9
Режим частоты кадров : Постоянный
Частота кадров : 23,976 (24000/1001) кадра/сек
Цветовое пространство : YUV
Субдискретизация насыщенности : 4:2:0
Битовая глубина : 8 бит
Тип развёртки : Прогрессивная
Бит/(Пиксели*Кадры) : 0.601
Размер потока : 28,8 Гбайт (84%)
Язык : English
Default : Да
Forced : Нет
Аудио #1
Идентификатор : 2
Формат : AC-3
Формат/Информация : Audio Coding 3
Расширение режима : CM (complete main)
Параметр Endianness формата : Big
Идентификатор кодека : A_AC3
Продолжительность : 2 ч. 18 м.
Вид битрейта : Постоянный
Битрейт : 384 Кбит/сек
Каналы : 6 каналов
Расположение каналов : Front: L C R, Side: L R, LFE
Частота : 48,0 КГц
Частота кадров : 31,250 кадров/сек (1536 spf)
Метод сжатия : С потерями
Размер потока : 379 Мбайт (1%)
Заголовок : iTunes
Язык : Russian
Default : Да
Forced : Нет
Аудио #2
Идентификатор : 3
Формат : DTS
Формат/Информация : Digital Theater Systems
Профиль формата : MA / Core
Режим : 16
Параметр Endianness формата : Big
Идентификатор кодека : A_DTS
Продолжительность : 2 ч. 18 м.
Вид битрейта : Переменный / Постоянный
Битрейт : 5194 Кбит/сек / 1509 Кбит/сек
Каналы : 8 каналов / 6 каналов
Расположение каналов : Front: L C R, Side: L R, Back: L R, LFE / Front: L C R, Side: L R, LFE
Частота : 48,0 КГц
Частота кадров : 93,750 кадра/сек (512 spf)
Битовая глубина : 24 бит
Метод сжатия : Без потерь / Lossy
Размер потока : 5,01 Гбайт (15%)
Заголовок : Original
Язык : English
Default : Нет
Forced : Нет
Текст #1
Идентификатор : 4
Формат : UTF-8
Идентификатор кодека : S_TEXT/UTF8
Идентификатор кодека/Информация : UTF-8 Plain Text
Продолжительность : 58 м.
Битрейт : 3 бит/сек
Count of elements : 19
Размер потока : 1,32 Кбайт (0%)
Язык : Russian
Default : Да
Forced : Нет
Текст #2
Идентификатор : 5
Формат : UTF-8
Идентификатор кодека : S_TEXT/UTF8
Идентификатор кодека/Информация : UTF-8 Plain Text
Продолжительность : 2 ч. 3 м.
Битрейт : 67 бит/сек
Count of elements : 1420
Размер потока : 61,2 Кбайт (0%)
Язык : Russian
Default : Нет
Forced : Нет
Текст #3
Идентификатор : 6
Формат : PGS
Режим смешивания : zlib
Идентификатор кодека : S_HDMV/PGS
Идентификатор кодека/Информация : Picture based subtitle format used on BDs/HD-DVDs
Продолжительность : 2 ч. 6 м.
Битрейт : 11,4 Кбит/сек
Count of elements : 3556
Размер потока : 10,3 Мбайт (0%)
Заголовок : English-PGS
Язык : English
Default : Нет
Forced : Нет
Текст #4
Идентификатор : 7
Формат : UTF-8
Идентификатор кодека : S_TEXT/UTF8
Идентификатор кодека/Информация : UTF-8 Plain Text
Продолжительность : 2 ч. 0 м.
Битрейт : 42 бит/сек
Count of elements : 1403
Размер потока : 37,3 Кбайт (0%)
Заголовок : English Regular
Язык : English
Default : Нет
Forced : Нет
Текст #5
Идентификатор : 8
Формат : UTF-8
Идентификатор кодека : S_TEXT/UTF8
Идентификатор кодека/Информация : UTF-8 Plain Text
Продолжительность : 2 ч. 6 м.
Битрейт : 52 бит/сек
Count of elements : 1778
Размер потока : 48,5 Кбайт (0%)
Заголовок : English SDH
Язык : English
Default : Нет
Forced : Нет
Текст #6
Идентификатор : 9
Формат : PGS
Режим смешивания : zlib
Идентификатор кодека : S_HDMV/PGS
Идентификатор кодека/Информация : Picture based subtitle format used on BDs/HD-DVDs
Продолжительность : 2 ч. 6 м.
Битрейт : 10,1 Кбит/сек
Count of elements : 3556
Размер потока : 9,14 Мбайт (0%)
Язык : English
Default : Нет
Forced : Нет
Меню
00:00:00.000 : en:00:00:00.000
00:00:09.259 : en:00:00:09.259
00:01:43.061 : en:00:01:43.061
00:03:51.857 : en:00:03:51.857
00:06:12.289 : en:00:06:12.289
00:09:33.948 : en:00:09:33.948
00:10:43.560 : en:00:10:43.560
00:12:35.713 : en:00:12:35.713
00:13:39.694 : en:00:13:39.694
00:14:48.221 : en:00:14:48.221
00:16:45.922 : en:00:16:45.922
00:18:04.583 : en:00:18:04.583
00:19:21.535 : en:00:19:21.535
00:21:26.619 : en:00:21:26.619
00:24:03.651 : en:00:24:03.651
00:26:47.022 : en:00:26:47.022
00:29:54.668 : en:00:29:54.668
00:31:49.324 : en:00:31:49.324
00:35:51.775 : en:00:35:51.775
00:36:40.615 : en:00:36:40.615
00:37:45.513 : en:00:37:45.513
00:40:19.250 : en:00:40:19.250
00:43:39.200 : en:00:43:39.200
00:45:29.560 : en:00:45:29.560
00:49:22.918 : en:00:49:22.918
00:51:19.952 : en:00:51:19.952
00:54:13.750 : en:00:54:13.750
00:59:48.794 : en:00:59:48.794
01:04:16.061 : en:01:04:16.061
01:08:37.238 : en:01:08:37.238
01:11:07.221 : en:01:11:07.221
01:15:16.387 : en:01:15:16.387
01:16:49.897 : en:01:16:49.897
01:19:37.523 : en:01:19:37.523
01:20:56.894 : en:01:20:56.894
01:25:36.173 : en:01:25:36.173
01:32:12.569 : en:01:32:12.569
01:35:29.015 : en:01:35:29.015
01:36:34.956 : en:01:36:34.956
01:39:28.629 : en:01:39:28.629
01:41:29.959 : en:01:41:29.959
01:42:57.505 : en:01:42:57.505
01:45:00.002 : en:01:45:00.002
01:50:33.710 : en:01:50:33.710
01:53:39.771 : en:01:53:39.771
01:55:22.165 : en:01:55:22.165
01:58:05.453 : en:01:58:05.453
02:01:05.592 : en:02:01:05.592
02:02:32.679 : en:02:02:32.679
02:07:07.578 : en:02:07:07.578

Скриншоты

[Профиль] [ЛС]
Показать сообщения:    

Текущее время: Сегодня 20:40

Часовой пояс: GMT



Вы не можете начинать темы
Вы не можете отвечать на сообщения
Вы не можете редактировать свои сообщения
Вы не можете удалять свои сообщения
Вы не можете голосовать в опросах
Вы не можете прикреплять файлы к сообщениям
Вы не можете скачивать файлы