Звёздные войны: Пробуждение силы / Star Wars: Episode VII - The Force Awakens (2015) BDRip-AVC от R.G.Resident | iTunes

 
Автор Сообщение

Russian Mafia ®

Пол:

Стаж: 1 год 8 месяцев

Сообщений: 4256



Награды: 10 (Подробнее)

Mega Seeder 5 (Количество: 1) Top Releaser 2 (Количество: 1) Top Releaser 4 (Количество: 1)
Торрент-статистика

Создавать темы 01-Апр-2016 06:40

[Цитировать]

Информация о фильме
Название: Звёздные войны: Пробуждение силы
Оригинальное название: Star Wars: Episode VII - The Force Awakens
Год выпуска: 2015
Страна: США
Жанр: фантастика, фэнтези, боевик, приключения-Перевод: Дубляж - [iTunes]
Субтитры: русские (Forced), русские, английские, английские (SDH)
Продолжительность: 02:18:06-Режиссер: Джей Джей Абрамс
В ролях: Джон Бойега (Finn), Дэйзи Ридли (Rey), Оскар Айзек (Poe Dameron), Адам Драйвер (Kylo Ren), Донал Глисон (General Hux), Харрисон Форд (Han Solo), Марк Хэмилл (Luke Skywalker), Кэрри Фишер (Princess Leia), Макс фон Сюдов (Lor San Tekka), Энди Серкис (Supreme Leader Snoke), Лупита Нионго (Maz Kanata), Энтони Дэниелс (C-3PO)-Описание:
Через тридцать лет после гибели Дарта Вейдера и Императора галактика по-прежнему в опасности. Государственное образование Первый Орден во главе с таинственным верховным лидером Сноуком и его правой рукой Кайло Реном идёт по стопам Империи, пытаясь захватить всю власть. В это нелёгкое время судьба сводит юную девушку Рей и бывшего штурмовика Первого Ордена Финна с героями войны с Империей - Ханом Соло, Чубаккой и генералом Леей. Вместе они должны дать бой Первому Ордену, однако настаёт тот момент, когда становится очевидно, что лишь джедаи могут остановить Сноука и Кайло Рена.-Рейтинг:

MPAA: PG-13 - Детям до 13 лет просмотр не желателен-Качество: BDRip-AVC
Формат: MKV
Видео: AVC, 1024x426 (2.40:1), 1864 kbps, 23,976 fps, 0,178 bpp
Аудио №1: русский / AC3 / 5.1 / 48 kHz / 384 kbps / 16 bit
Аудио №2: английский / AC3 / 5.1 / 48 kHz / 384 kbps / 16 bit
Навигация по главам: есть-Релиз от: by schultz

ОтчетМедиаИнфо

General
Unique ID : 210847733459436574618252194561768208608 (0x9E9FCBDE16FA41379DC983D2D2A2B8E0)
Complete name : D:downloadStar.Wars.Episode.VII.The.Force.Awakens.2015.BDRip-AVC by schultz R.G.Resident.mkv
Format : Matroska
Format version : Version 4 / Version 2
File size : 2.54 GiB
Duration : 2h 18mn
Overall bit rate : 2 634 Kbps
Movie name : Звёздные войны: Пробуждение силы (2015)
Encoded date : UTC 2016-03-31 20:41:09
Writing application : mkvmerge v8.9.0 ('Father Daughter') 64bit
Writing library : libebml v1.3.3 + libmatroska v1.4.4
DURATION : 02:06:51.896000000
NUMBER_OF_FRAMES : 1780
NUMBER_OF_BYTES : 49735
_STATISTICS_WRITING_APP : mkvmerge v8.9.0 ('Father Daughter') 64bit
_STATISTICS_WRITING_DATE_UTC : 2016-03-31 20:41:09
_STATISTICS_TAGS : BPS DURATION NUMBER_OF_FRAMES NUMBER_OF_BYTES
Video
ID : 1
Format : AVC
Format/Info : Advanced Video Codec
Format profile : High@L4.1
Format settings, CABAC : Yes
Format settings, ReFrames : 12 frames
Codec ID : V_MPEG4/ISO/AVC
Duration : 2h 18mn
Bit rate : 1 864 Kbps
Width : 1 024 pixels
Height : 426 pixels
Display aspect ratio : 2.40:1
Frame rate : 23.976 fps
Color space : YUV
Chroma subsampling : 4:2:0
Bit depth : 8 bits
Scan type : Progressive
Bits/(Pixel*Frame) : 0.178
Stream size : 1.75 GiB (69%)
Writing library : x264 core 146 r2538 121396c
Encoding settings : cabac=1 / ref=12 / deblock=1:-3:-3 / analyse=0x3:0x113 / me=umh / subme=11 / psy=1 / psy_rd=1.00:0.00 / mixed_ref=1 / me_range=48 / chroma_me=1 / trellis=2 / 8x8dct=1 / cqm=0 / deadzone=21,11 / fast_pskip=0 / chroma_qp_offset=-2 / threads=12 / lookahead_threads=3 / sliced_threads=0 / nr=0 / decimate=1 / interlaced=0 / bluray_compat=0 / constrained_intra=0 / bframes=13 / b_pyramid=2 / b_adapt=2 / b_bias=0 / direct=3 / weightb=1 / open_gop=0 / weightp=2 / keyint=240 / keyint_min=23 / scenecut=40 / intra_refresh=0 / rc_lookahead=40 / rc=2pass / mbtree=1 / bitrate=1864 / ratetol=1.0 / qcomp=0.60 / qpmin=0 / qpmax=69 / qpstep=4 / cplxblur=20.0 / qblur=0.5 / vbv_maxrate=14000 / vbv_bufsize=14000 / nal_hrd=none / filler=0 / ip_ratio=1.40 / aq=1:1.00
Language : English
Default : Yes
Forced : No
DURATION : 02:18:06.709000000
NUMBER_OF_FRAMES : 198682
NUMBER_OF_BYTES : 1930594791
_STATISTICS_WRITING_APP : mkvmerge v8.9.0 ('Father Daughter') 64bit
_STATISTICS_WRITING_DATE_UTC : 2016-03-31 20:41:09
_STATISTICS_TAGS : BPS DURATION NUMBER_OF_FRAMES NUMBER_OF_BYTES
Audio #1
ID : 2
Format : AC-3
Format/Info : Audio Coding 3
Mode extension : CM (complete main)
Codec ID : A_AC3
Duration : 2h 18mn
Bit rate mode : Constant
Bit rate : 384 Kbps
Channel(s) : 6 channels
Channel positions : Front: L C R, Side: L R, LFE
Sampling rate : 48.0 KHz
Bit depth : 16 bits
Compression mode : Lossy
Stream size : 379 MiB (15%)
Language : Russian
Default : Yes
Forced : No
Audio #2
ID : 3
Format : AC-3
Format/Info : Audio Coding 3
Mode extension : CM (complete main)
Codec ID : A_AC3
Duration : 2h 18mn
Bit rate mode : Constant
Bit rate : 384 Kbps
Channel(s) : 6 channels
Channel positions : Front: L C R, Side: L R, LFE
Sampling rate : 48.0 KHz
Bit depth : 16 bits
Compression mode : Lossy
Stream size : 379 MiB (15%)
Default : No
Forced : No
Text #1
ID : 4
Format : UTF-8
Codec ID : S_TEXT/UTF8
Codec ID/Info : UTF-8 Plain Text
Title : Forced
Language : Russian
Default : Yes
Forced : Yes
Text #2
ID : 5
Format : UTF-8
Codec ID : S_TEXT/UTF8
Codec ID/Info : UTF-8 Plain Text
Language : Russian
Default : No
Forced : No
Text #3
ID : 6
Format : UTF-8
Codec ID : S_TEXT/UTF8
Codec ID/Info : UTF-8 Plain Text
Language : English
Default : No
Forced : No
Text #4
ID : 7
Format : UTF-8
Codec ID : S_TEXT/UTF8
Codec ID/Info : UTF-8 Plain Text
Title : SDH
Language : English
Default : No
Forced : No
Menu
00:00:00.000 : en:00:00:00
00:00:09.259 : en:00:00:09
00:01:43.061 : en:00:01:43
00:03:51.857 : en:00:03:51
00:06:12.289 : en:00:06:12
00:09:33.948 : en:00:09:33
00:10:43.560 : en:00:10:43
00:12:35.713 : en:00:12:35
00:13:39.694 : en:00:13:39
00:14:48.221 : en:00:14:48
00:16:45.922 : en:00:16:45
00:18:04.583 : en:00:18:04
00:19:21.535 : en:00:19:21
00:21:26.619 : en:00:21:26
00:24:03.651 : en:00:24:03
00:26:47.022 : en:00:26:47
00:29:54.668 : en:00:29:54
00:31:49.324 : en:00:31:49
00:35:51.775 : en:00:35:51
00:36:40.615 : en:00:36:40
00:37:45.513 : en:00:37:45
00:40:19.250 : en:00:40:19
00:43:39.200 : en:00:43:39
00:45:29.560 : en:00:45:29
00:49:22.918 : en:00:49:22
00:51:19.952 : en:00:51:19
00:54:13.750 : en:00:54:13
00:59:48.794 : en:00:59:48
01:04:16.061 : en:01:04:16
01:08:37.238 : en:01:08:37
01:11:07.221 : en:01:11:07
01:15:16.387 : en:01:15:16
01:16:49.897 : en:01:16:49
01:19:37.523 : en:01:19:37
01:20:56.894 : en:01:20:56
01:25:36.173 : en:01:25:36
01:32:12.569 : en:01:32:12
01:35:29.015 : en:01:35:29
01:36:34.956 : en:01:36:34
01:39:28.629 : en:01:39:28
01:41:29.959 : en:01:41:29
01:42:57.505 : en:01:42:57
01:45:00.002 : en:01:45:00
01:50:33.710 : en:01:50:33
01:53:39.771 : en:01:53:39
01:55:22.165 : en:01:55:22
01:58:05.453 : en:01:58:05
02:01:05.592 : en:02:01:05
02:02:32.679 : en:02:02:32
02:07:07.578 : en:02:07:07

Скриншоты

[Профиль] [ЛС]
Показать сообщения:    

Текущее время: Сегодня 22:33

Часовой пояс: GMT



Вы не можете начинать темы
Вы не можете отвечать на сообщения
Вы не можете редактировать свои сообщения
Вы не можете удалять свои сообщения
Вы не можете голосовать в опросах
Вы не можете прикреплять файлы к сообщениям
Вы не можете скачивать файлы