Звёздные войны: Повстанцы / Star Wars Rebels [S01] (2014) WEB-DLRip | D

 
Автор Сообщение

достали все ®

Пол:

Стаж: 1 год 8 месяцев

Сообщений: 6554



Награды: 12 (Подробнее)

Mega Seeder 4 (Количество: 1) Top Releaser 2 (Количество: 1) Mega Seeder 5 (Количество: 1)
Торрент-статистика

Создавать темы 03-Июн-2015 10:20

[Цитировать]

Информация о фильме
Название: Звёздные войны: Повстанцы
Оригинальное название: Star Wars Rebels
Год выхода: 2014
Жанр: мультфильм, фантастика, фэнтези, боевик, приключения
Режиссер: Стюарт Ли, Дэйв Филони, Стивен Дж. Ли
В ролях: Ванесса Маршалл, Фредди Принц мл., Стивен Блум, Тия Сиркар, Тейлор Грэй, Дэвид Ойелоуо, Кит Шарабайка, Лайам О’Брайэн, Грег Уайзман, Грег Эллис
О фильме:
Для Галактики настали тёмные времена. Поглощая один мир за другим, Империя продолжает наращивать свою мощь. Имперские войска, оккупировавшие отдаленную планету, устанавливают на ней деспотический режим. Но находятся смельчаки, готовые противостоять силам Империи. Это экипаж космического корабля «Призрак»! Команде повстанцев предстоит столкнуться лицом к лицу с новыми грозными противниками и стать героями, способными поднять восстание.

Список серий (1 сезон)

01. Искры мятежа | Spark of Rebellion
02. Дроиды в беде | Droids in Distress
03. Полёт истребителя | Fighter Flight
04. Воскрешение старых мастеров | Rise of the Old Masters
05. Нарушая строй | Breaking Ranks
06. Из темноты | Out of Darkness
07. День Империи | Empire Day
08. Силы прибывают | Gathering Forces
09. Путь джедая | Path of the Jedi
10. Расклад идиота | Idiot's Array
11. Мираж надежды | Vision of Hope
12. Призыв к действию | Call to Action
13. Решение повстанцев | Rebel Resolve
14. Огонь распространяется | Fire Across the Galaxy
Официальный сайт Production website
Страна: США
Студия: Lucasfilm, Lucasfilm Animation, Disney Television Animation, Disney–ABC Domestic Television
Продолжительность: ~00:22:00 серия (1 серия ~00:43:00)
Перевод: Профессиональный (дублированный) [Невафильм]
Файл
Кодек: XviD / MP3
Качество: WEB-DLRip
Видео: MPEG4, XviD, 720x400 (16:9), 23.976 fps, 1 342 Kbps (0.194 bit/pixel)
Звук:
Аудио #1: MP3, 48.0 KHz, 2 ch, 128 Kbps, CBR [rus]
Аудио #2: MP3, 48.0 KHz, 2 ch, 128 Kbps, CBR [eng]

MediaInfo

General
Complete name : /Star.Wars.Rebels.s01 [Невафильм]/star.wars.rebels.s01e01.web-dlrip.rus.eng.nevafilm.avi
Format : AVI
Format/Info : Audio Video Interleave
File size : 500 MiB
Duration : 43mn 22s
Overall bit rate : 1 612 Kbps
Writing application : VirtualDubMod 1.5.10.3 | www.virtualdub-fr.org || (build 2550/release)
Writing library : VirtualDubMod build 2550/release
Video
ID : 0
Format : MPEG-4 Visual
Format profile : Advanced Simple@L5
Format settings, BVOP : 2
Format settings, QPel : No
Format settings, GMC : No warppoints
Format settings, Matrix : Default (MPEG)
Codec ID : XVID
Codec ID/Hint : XviD
Duration : 43mn 22s
Bit rate : 1 342 Kbps
Width : 720 pixels
Height : 400 pixels
Display aspect ratio : 16:9
Frame rate : 23.976 fps
Color space : YUV
Chroma subsampling : 4:2:0
Bit depth : 8 bits
Scan type : Progressive
Compression mode : Lossy
Bits/(Pixel*Frame) : 0.194
Stream size : 416 MiB (83%)
Writing library : XviD 73
Audio #1
ID : 1
Format : MPEG Audio
Format version : Version 1
Format profile : Layer 3
Codec ID : 55
Codec ID/Hint : MP3
Duration : 43mn 22s
Bit rate mode : Constant
Bit rate : 128 Kbps
Channel(s) : 2 channels
Sampling rate : 48.0 KHz
Compression mode : Lossy
Stream size : 39.7 MiB (8%)
Alignment : Aligned on interleaves
Interleave, duration : 42 ms (1.00 video frame)
Interleave, preload duration : 504 ms
Writing library : LAME3.99r
Encoding settings : -m s -V 4 -q 0 -lowpass 17 -b 128
Audio #2
ID : 2
Format : MPEG Audio
Format version : Version 1
Format profile : Layer 3
Codec ID : 55
Codec ID/Hint : MP3
Duration : 43mn 22s
Bit rate mode : Constant
Bit rate : 128 Kbps
Channel(s) : 2 channels
Sampling rate : 48.0 KHz
Compression mode : Lossy
Stream size : 39.7 MiB (8%)
Alignment : Aligned on interleaves
Interleave, duration : 42 ms (1.00 video frame)
Interleave, preload duration : 504 ms
Writing library : LAME3.99r
Encoding settings : -m s -V 4 -q 0 -lowpass 17 -b 128
[Профиль] [ЛС]
Показать сообщения:    

Текущее время: Сегодня 08:48

Часовой пояс: GMT



Вы не можете начинать темы
Вы не можете отвечать на сообщения
Вы не можете редактировать свои сообщения
Вы не можете удалять свои сообщения
Вы не можете голосовать в опросах
Вы не можете прикреплять файлы к сообщениям
Вы не можете скачивать файлы