Звёздные войны: Повстанцы / Star Wars: Rebels (2014) WEB-DLRip (Сезон 1, серий 7 из 16) (LostFilm)

 
Автор Сообщение

sergej644 ®

Пол:

Стаж: 4 года 11 месяцев

Сообщений: 6041

Откуда: Soviet Union



Награды: Нет

Торрент-статистика

Создавать темы 25-Ноя-2014 20:56

[Цитировать]

-Звёздные войны: Повстанцы / Star Wars: Rebels (2014) WEB-DLRip- Сезон: 1 (Первый)
Год выпуска: 2014
Жанр: Фантастика, мультсериал, приключения
Выпущено: США, Lucasfilm Ltd, DisneyXD
Официальный сайт
Режиссер: Стюарт Ли, Дэйв Филони, Стивен Дж. Ли
Персонажи: Фредди Принц-младший (Кейнан Джаррус), Тейлор Грэй (Эзра Бриджер), Стивен Блум (Зеб Ореллиос), Тия Сиркар (Сабина Рен), Ванесса Маршалл (Гера Синдулла), Дэвид Ойелово (агент Каллус), Джейсон Айзекс (Инквизитор)
Описание фильма:
Миновало 14 лет с того момента, как канцлер Палпатин отдал "Приказ 66", спровоцировавший Великое истребление джедаев. Кейнан Джаррус, один из последних адептов светлой стороны Силы, вынужден объединить усилия с молодым воришкой, опытным головорезом, экспертом по взрывчатке, ворчливым дроидом и пилотом космического корабля «Призрак» в борьбе против Империи. Группе изгоев предстоит стать новой надеждой жителей галактики и дать отпор Инквизитору, идущему по пятам последних представителей Ордена джедаев.
Перевод: Многоголосый закадровый, профессиональный
Озвучка / Автор перевода: студия "LostFilm"
Продолжительность: каждая ~ 00:22:00

Видеокодек: XviD
Битрейт видео: ~1914 Кбит/с
Размер кадра: 720 x 400
Качество видео: WEB-DLRip
Аудиокодек: MP3 2.0
Битрейт аудио: 192 Кбит/с

Список серий (1 сезон)

01. Искры мятежа | Spark of Rebellion
02. Дроиды в беде | Droids in Distress
03. Полёт истребителя | Fighter Flight
04. Воскрешение старых мастеров | Rise of the Old Masters
05. Нарушая строй | Breaking Ranks
06. Из темноты | Out of Darkness
07. День Империи | Empire Day

Внимание! Раздача ведётся путём добавления новых серий

При каждом добавлении создаётся новый торрент.
Чтобы начать докачку новой серии, пользователям необходимо сделать следующее:
1. остановить скачивание;
2. удалить старый торрент у себя из клиента (старые серии удалять не надо);
3. скачать новый торрент и запустить его у себя в клиенте вместо старого, при этом указать клиенту путь в старую папку куда и должно происходить скачивание новых серий. Ваш клиент при этом должен произвести хеширование (проверку) старой папки и будет докачивать только те серии, которых у вас ещё нет. Старые серии при этом не удаляются, а продолжают раздаваться! Eсли Вы уже удалили старые серии, то предотвратить повторную закачку старых серий можно, отжав галочку в соответствующих местах при запуске нового торрента.

MediaInfo

Общее
Полное имя : \Star Wars Rebels.01.Season.WEB-DLRip.2014\Star.Wars.Rebels.S01E03.rus.LostFilm.TV.avi
Формат : AVI
Формат/Информация : Audio Video Interleave
Размер файла : 306 Мбайт
Продолжительность : 22 м.
Режим общего битрейта : Переменный
Общий поток : 1923 Кбит/сек
Программа кодирования : Nandub v1.0rc2
Библиотека кодирования : Nandub build 1853/release
Видео
Идентификатор : 0
Формат : MPEG-4 Visual
Профиль формата : Advanced Simple@L5
Параметр BVOP формата : Нет
Параметр QPel формата : Нет
Параметр GMC формата : Без точки перехода
Параметр матрицы формата : Default (H.263)
Идентификатор кодека : XVID
Идентификатор кодека/Подсказка : XviD
Продолжительность : 22 м.
Битрейт : 1721 Кбит/сек
Ширина : 720 пикселей
Высота : 400 пикселей
Соотношение сторон : 16:9
Частота кадров : 23,976 кадра/сек
Цветовое пространство : YUV
Субдискретизация насыщенности : 4:2:0
Битовая глубина : 8 бит
Тип развёртки : Прогрессивная
Метод сжатия : С потерями
Бит/(Пиксели*Кадры) : 0.249
Размер потока : 274 Мбайт (90%)
Библиотека кодирования : XviD 1.2.1 (UTC 2008-12-04)
Аудио
Идентификатор : 1
Формат : MPEG Audio
Версия формата : Version 1
Профиль формата : Layer 3
Режим : Joint stereo
Расширение режима : MS Stereo
Идентификатор кодека : 55
Идентификатор кодека/Подсказка : MP3
Продолжительность : 22 м.
Вид битрейта : Переменный
Битрейт : 192 Кбит/сек
Каналы : 2 канала
Частота : 48,0 КГц
Метод сжатия : С потерями
Размер потока : 30,0 Мбайт (10%)
Выравнивание : Соединение по промежуткам
Продолжительность промежутка : 24 мс. (0,58 видеокадр)
Время предзагрузки промежутка : 480 мс.
Библиотека кодирования : LAME3.97b
Настройки программы : -m j -V 4 -q 3 -lowpass 18.6 --abr 192
Скриншоты:
Время раздачи: По возможности (до 3 скачавших)
[Профиль] [ЛС]
Показать сообщения:    

Текущее время: Сегодня 18:54

Часовой пояс: GMT



Вы не можете начинать темы
Вы не можете отвечать на сообщения
Вы не можете редактировать свои сообщения
Вы не можете удалять свои сообщения
Вы не можете голосовать в опросах
Вы не можете прикреплять файлы к сообщениям
Вы не можете скачивать файлы