Звонок / Ringu (1998) BDRip 720p

 
Автор Сообщение

sergej644 ®

Пол:

Стаж: 4 года 11 месяцев

Сообщений: 6042

Откуда: Soviet Union



Награды: Нет

Торрент-статистика

Создавать темы 04-Ноя-2014 09:22

[Цитировать]

Звонок / Ringu (1998)
Информация о фильме
Название: Звонок
Оригинальное название: Ringu
Год выхода: 1998
Жанр: ужасы
Режиссер: Хидео Наката
В ролях: Нанако Мацусима, Мики Накатани, Юко Такэути, Хитоми Сато, Ёити Нумата, Ютака Мацусигэ, Кацуми Мурамацу, Рикия Отака, Масако, Дайскэ Бан
О фильме: Молодая женщина-репортер расследует загадочное суеверие о смертоносной видеокассете. В доме того, кто посмотрит ее, сначала раздается странный звонок по телефону, еще чуть позже его находят мертвым.
После того, как, видимо, такой же смертью умирает ее племянница, репортерша решает взяться за расследование и сама смотрит злополучную кассету. Чуть позже в ее квартире раздается звонок…

Страна: Japan
Студия: Omega Project, Imagica, Asmik Ace Entertainment
Продолжительность: 01:35:18
Перевод: профессиональный (многоголосый закадровый), авторский (одноголосый закадровый)
Субтитры: русские, английские
Файл
Кодек: MPEG-4 AVC/H.264
Качество: BDRip [720p]
Видео: 1280 x 692 (1,85:1), 7 194 kbps, 23.976 fps, 0.339 b/px
Звук:
Аудио # 1: АС3, 2 ch, 192 kbps, 48 000 Hz [Многоголосый закадровый]
Аудио # 2: АС3, 6 ch, 640 kbps, 48 000 Hz [Одноголосый закадровый (Ю.Сербин)]
Аудио # 3: АС3, 6 ch, 640 kbps, 48 000 Hz [Одноголосый закадровый (А.Гаврилов)]
Аудио # 4: АС3, 6 ch, 640 kbps, 48 000 Hz [Одноголосый закадровый (С.Кузнецов)]
Аудио # 5: АС3, 6 ch, 640 kbps, 48 000 Hz [Оригинальный (Japanese)]

MediaInfo

Общее
Уникальный идентификатор : 222862977115481682680595613756130692777 (0xA7A9D91DE18F86E9B58F6647E6618EA9)
Полное имя : D:[1998] Звонок [BDRip] [720p].mkv
Формат : Matroska
Версия формата : Version 4 / Version 2
Размер файла : 6,76 Гбайт
Продолжительность : 1 ч. 35 м.
Общий поток : 10,1 Мбит/сек
Название фильма : Звонок / Ringu (1998) BDRip [720p]
Дата кодирования : UTC 2014-11-02 21:36:25
Программа кодирования : mkvmerge v7.2.0 ('On Every Street') 32bit built on Sep 13 2014 15:42:11
Библиотека кодирования : libebml v1.3.0 + libmatroska v1.4.1
DURATION : 01:34:23.784000000
NUMBER_OF_FRAMES : 608
NUMBER_OF_BYTES : 17329
_STATISTICS_WRITING_APP : mkvmerge v7.2.0 ('On Every Street') 32bit built on Sep 13 2014 15:42:11
_STATISTICS_WRITING_DATE_UTC : 2014-11-02 21:36:25
_STATISTICS_TAGS : BPS DURATION NUMBER_OF_FRAMES NUMBER_OF_BYTES
Видео
Идентификатор : 1
Формат : AVC
Формат/Информация : Advanced Video Codec
Профиль формата : High@L4.1
Параметр CABAC формата : Да
Параметр ReFrames формата : 9 кадров
Идентификатор кодека : V_MPEG4/ISO/AVC
Продолжительность : 1 ч. 35 м.
Битрейт : 7194 Кбит/сек
Ширина : 1280 пикселей
Высота : 692 пикселя
Соотношение сторон : 1,85:1
Режим частоты кадров : Постоянный
Частота кадров : 23,976 кадра/сек
Цветовое пространство : YUV
Субдискретизация насыщенности : 4:2:0
Битовая глубина : 8 бит
Тип развёртки : Прогрессивная
Бит/(Пиксели*Кадры) : 0.339
Размер потока : 4,79 Гбайт (71%)
Заголовок : [1998] Звонок / Ringu [BDRip] [720p]
Библиотека кодирования : x264 core 124 r2197 69a0443
Настройки программы : cabac=1 / ref=9 / deblock=1:-3:-3 / analyse=0x3:0x113 / me=tesa / subme=11 / psy=1 / psy_rd=1.21:0.00 / mixed_ref=1 / me_range=16 / chroma_me=1 / trellis=2 / 8x8dct=1 / cqm=0 / deadzone=21,11 / fast_pskip=0 / chroma_qp_offset=-2 / threads=12 / sliced_threads=0 / nr=0 / decimate=0 / interlaced=0 / bluray_compat=0 / constrained_intra=0 / bframes=7 / b_pyramid=2 / b_adapt=2 / b_bias=0 / direct=3 / weightb=1 / open_gop=0 / weightp=2 / keyint=250 / keyint_min=23 / scenecut=40 / intra_refresh=0 / rc=crf / mbtree=0 / crf=17.0 / qcomp=0.69 / qpmin=0 / qpmax=69 / qpstep=4 / ip_ratio=1.40 / pb_ratio=1.30 / aq=1:0.69
Язык : Japanese
Default : Да
Forced : Нет
DURATION : 01:35:18.713000000
NUMBER_OF_FRAMES : 137112
NUMBER_OF_BYTES : 5284606557
_STATISTICS_WRITING_APP : mkvmerge v7.2.0 ('On Every Street') 32bit built on Sep 13 2014 15:42:11
_STATISTICS_WRITING_DATE_UTC : 2014-11-02 21:36:25
_STATISTICS_TAGS : BPS DURATION NUMBER_OF_FRAMES NUMBER_OF_BYTES
Аудио #1
Идентификатор : 2
Формат : AC-3
Формат/Информация : Audio Coding 3
Расширение режима : CM (complete main)
Параметр Endianness формата : Big
Идентификатор кодека : A_AC3
Продолжительность : 1 ч. 35 м.
Вид битрейта : Постоянный
Битрейт : 192 Кбит/сек
Каналы : 2 канала
Расположение каналов : Front: L R
Частота : 48,0 КГц
Битовая глубина : 16 бит
Метод сжатия : С потерями
Размер потока : 131 Мбайт (2%)
Заголовок : Многоголосый закадровый
Язык : Russian
Default : Да
Forced : Нет
Аудио #2
Идентификатор : 3
Формат : AC-3
Формат/Информация : Audio Coding 3
Расширение режима : CM (complete main)
Параметр Endianness формата : Big
Идентификатор кодека : A_AC3
Продолжительность : 1 ч. 35 м.
Вид битрейта : Постоянный
Битрейт : 640 Кбит/сек
Каналы : 6 каналов
Расположение каналов : Front: L C R, Side: L R, LFE
Частота : 48,0 КГц
Битовая глубина : 16 бит
Метод сжатия : С потерями
Размер потока : 436 Мбайт (6%)
Заголовок : Одноголосый закадровый
Язык : Russian
Default : Нет
Forced : Нет
Аудио #3
Идентификатор : 4
Формат : AC-3
Формат/Информация : Audio Coding 3
Расширение режима : CM (complete main)
Параметр Endianness формата : Big
Идентификатор кодека : A_AC3
Продолжительность : 1 ч. 35 м.
Вид битрейта : Постоянный
Битрейт : 640 Кбит/сек
Каналы : 6 каналов
Расположение каналов : Front: L C R, Side: L R, LFE
Частота : 48,0 КГц
Битовая глубина : 16 бит
Метод сжатия : С потерями
Размер потока : 436 Мбайт (6%)
Заголовок : Одноголосый закадровый
Язык : Russian
Default : Нет
Forced : Нет
Аудио #4
Идентификатор : 5
Формат : AC-3
Формат/Информация : Audio Coding 3
Расширение режима : CM (complete main)
Параметр Endianness формата : Big
Идентификатор кодека : A_AC3
Продолжительность : 1 ч. 35 м.
Вид битрейта : Постоянный
Битрейт : 640 Кбит/сек
Каналы : 6 каналов
Расположение каналов : Front: L C R, Side: L R, LFE
Частота : 48,0 КГц
Битовая глубина : 16 бит
Метод сжатия : С потерями
Размер потока : 436 Мбайт (6%)
Заголовок : Одноголосый закадровый
Язык : Russian
Default : Нет
Forced : Нет
Аудио #5
Идентификатор : 6
Формат : AC-3
Формат/Информация : Audio Coding 3
Расширение режима : CM (complete main)
Параметр Endianness формата : Big
Идентификатор кодека : A_AC3
Продолжительность : 1 ч. 35 м.
Вид битрейта : Постоянный
Битрейт : 640 Кбит/сек
Каналы : 6 каналов
Расположение каналов : Front: L C R, Side: L R, LFE
Частота : 48,0 КГц
Битовая глубина : 16 бит
Метод сжатия : С потерями
Размер потока : 436 Мбайт (6%)
Заголовок : Оригинальный
Язык : Japanese
Default : Нет
Forced : Нет
Текст #1
Идентификатор : 7
Формат : UTF-8
Идентификатор кодека : S_TEXT/UTF8
Идентификатор кодека/Информация : UTF-8 Plain Text
Заголовок : Русские
Язык : Russian
Default : Нет
Forced : Нет
Текст #2
Идентификатор : 8
Формат : UTF-8
Идентификатор кодека : S_TEXT/UTF8
Идентификатор кодека/Информация : UTF-8 Plain Text
Заголовок : English
Язык : English
Default : Нет
Forced : Нет
Меню
00:00:00.000 : en:Weird Dream (present day)
00:01:33.343 : en:Oshima Island (30 years ago)
00:14:07.597 : en:Main Title / Sadako
00:17:07.068 : en:Visit to the Doctor
00:22:09.203 : en:Death of Aiko
00:26:22.456 : en:A Tape of a Public Experiment
00:27:32.651 : en:Unexpected Selection
00:30:04.845 : en:Aiko's Grudge / Shigemori's Desire
00:31:45.612 : en:A Nightmare in the Dressing Room
00:34:04.417 : en:Toyama and Sadako
00:42:52.779 : en:Etsuko's Insecurity and Anxiety
00:45:30.269 : en:Are You Miss Sadako Yamamura?
00:48:16.602 : en:Two Sadakos
00:50:45.584 : en:Shigemori's Death
00:57:03.920 : en:A Desire and a Miracle
00:59:11.798 : en:Love Through a Glass
01:07:59.742 : en:A Tragedy
01:11:57.396 : en:Ikuma's Second House
01:25:02.097 : en:Escape
01:31:34.322 : en:Sadako and Sadako

Скриншоты

[Профиль] [ЛС]
Показать сообщения:    

Текущее время: Сегодня 18:09

Часовой пояс: GMT



Вы не можете начинать темы
Вы не можете отвечать на сообщения
Вы не можете редактировать свои сообщения
Вы не можете удалять свои сообщения
Вы не можете голосовать в опросах
Вы не можете прикреплять файлы к сообщениям
Вы не можете скачивать файлы