Зверофабрика / Animal Factory (2000) WEB-DL 720p

 
Автор Сообщение

sergej644 ®

Пол:

Стаж: 4 года 11 месяцев

Сообщений: 6042

Откуда: Soviet Union



Награды: Нет

Торрент-статистика

Создавать темы 26-Дек-2014 22:22

[Цитировать]

Информация о фильме
Название: Зверофабрика
Оригинальное название: Animal Factory
Год выхода: 2000
Жанр: драма, криминал
Режиссер: Стив Бушеми
В ролях: Уиллем Дефо, Эдвард Ферлонг, Дэнни Трэхо, Марк Бун Джуниор, Сеймур Кэссел, Микки Рурк, Том Арнольд, Джон Херд, Крис Бауэр, Рокетс Редглэр, Джейк Ла Боц, Марк Энгелхардт, Эдвард Банкер, Виктор Пэйгэн, Эрнест Харден-мл., Афемо Омилами, Майкл Бушеми, Дж. С. Куинн, Стивен Рандаццо, Марк Уэббер, Джонни Спэниш, Винсент Лареска, Стив Бушеми, Брайан Энтони Уилсон, Джеймс Мартин Келли, Кристофер Лонг, Тони Девон, Майкл Гриффит
О фильме:
За воротами тюрьмы нормальная жизнь заканчивается. Любой несчастный вступивший в стены этого жуткого старого здания обречен жить по чудовищным, волчьим законам, от которых законопослушный человек придет в неописуемый ужас. Здесь татуированные рецидивисты режут и калечат друг друга, устраивают кровопролитные разборки, и «берут в жены» слабаков, которые не могут за себя постоять. Здесь — твоя жизнь больше уже не стоит ничего… Именно в эту тюрьму и попадает герой картины, молодой человек по имени Рон Деккер. Если бы не счастливое стечение обстоятельств, то Деккер не «протянул» бы здесь и месяца. Но Рону повезло: его взял под защиту местный «авторитет» Эрл Коупен — уважаемый «вор в законе», человек опытный и рассудительный. Возникает удивительная дружба между «прожженным» уголовником и юношей, попавшим за решетку по воле случая. И вот эта странная парочка решает совершить побег…

Выпущено: США, Animal Productions LLC, Arts Production Corporation, Franchise Pictures, Industry Entertainment, Phoenician Entertainment
Продолжительность: 01:30:39
Перевод: Профессиональный (многоголосый, закадровый) R5
Файл
Качество: WEB-DL 720p
Видео: MPEG-4 AVC, 1280x716, 4170 кбит/сек, 25.00 fps
Звук: Русский (AC3, 6 ch, 448 Кбит/с), английский (AC3, 6 ch, 448 Кбит/с)
Субтитры: Русские, английские

M/I

ФИЛЬМЫЗВЕРОФАБРИКА (MVO+SUB).2000.720p.WEB-DL.DD5.1.H.264-lord_i_74.mkv
Формат : Matroska
Версия формата : Version 2
Размер файла : 3,27 Гбайт
Продолжительность : 1 ч. 30 м.
Общий поток : 5169 Кбит/сек
Дата кодирования : UTC 2012-11-23 15:00:24
Программа кодирования : mkvmerge v5.0.1 ('Es ist Sommer') built on Oct 9 2011 11:55:43
Библиотека кодирования : libebml v1.2.2 + libmatroska v1.3.0
Видео
Идентификатор : 1
Формат : AVC
Формат/Информация : Advanced Video Codec
Профиль формата : High@L3.1
Параметр CABAC формата : Нет
Параметр ReFrames формата : 2 кадра
Параметры GOP формата : M=2, N=38
Идентификатор кодека : V_MPEG4/ISO/AVC
Продолжительность : 1 ч. 30 м.
Битрейт : 4170 Кбит/сек
Ширина : 1280 пикс.
Высота : 716 пикс.
Соотношение сторон : 16:9
Частота кадров : 25,000 кадр/сек
Цветовое пространство : YUV
Подвыборка цветности : 4:2:0
Битовая глубина : 8 бит
Тип развёртки : Прогрессивная
Бит/(Пиксели*Кадры) : 0.182
Размер потока : 2,64 Гбайт (81%)
Заголовок : Animal.Factory.2000.720p.WEB-DL.DD5.1.H.264
Язык : English
Основные цвета : BT.709-5, BT.1361, IEC 61966-2-4, SMPTE RP177
Характеристики трансфера : BT.709-5, BT.1361
Коэффициенты матрицы : BT.709-5, BT.1361, IEC 61966-2-4 709, SMPTE RP177
Аудио #1
Идентификатор : 2
Формат : AC-3
Формат/Информация : Audio Coding 3
Расширение режима : CM (complete main)
Идентификатор кодека : A_AC3
Продолжительность : 1 ч. 30 м.
Вид битрейта : Постоянный
Битрейт : 448 Кбит/сек
Каналы : 6 каналов
Расположение каналов : Front: L C R, Side: L R, LFE
Частота : 48,0 КГц
Битовая глубина : 16 бит
Метод сжатия : С потерями
Размер потока : 290 Мбайт (9%)
Заголовок : MVO R5
Язык : Russian
Аудио #2
Идентификатор : 3
Формат : AC-3
Формат/Информация : Audio Coding 3
Расширение режима : CM (complete main)
Идентификатор кодека : A_AC3
Продолжительность : 1 ч. 30 м.
Вид битрейта : Постоянный
Битрейт : 448 Кбит/сек
Каналы : 6 каналов
Расположение каналов : Front: L C R, Side: L R, LFE
Частота : 48,0 КГц
Битовая глубина : 16 бит
Метод сжатия : С потерями
Размер потока : 290 Мбайт (9%)
Заголовок : original
Язык : English
Текст #1
Идентификатор : 4
Формат : UTF-8
Идентификатор кодека : S_TEXT/UTF8
Идентификатор кодека/Информация : UTF-8 Plain Text
Заголовок : sub R5
Язык : Russian
Текст #2
Идентификатор : 5
Формат : UTF-8
Идентификатор кодека : S_TEXT/UTF8
Идентификатор кодека/Информация : UTF-8 Plain Text
Заголовок : sub SDH
Язык : English
-- --
[Профиль] [ЛС]

Создавать темы 06-Авг-2015 22:53 (спустя 7 месяцев 12 дней)

Топик был перенесен из форума Фильмы до 2014 года в форум Фильмы до 2012 года
sergej644
 
Показать сообщения:    

Текущее время: Сегодня 08:52

Часовой пояс: GMT



Вы не можете начинать темы
Вы не можете отвечать на сообщения
Вы не можете редактировать свои сообщения
Вы не можете удалять свои сообщения
Вы не можете голосовать в опросах
Вы не можете прикреплять файлы к сообщениям
Вы не можете скачивать файлы