Зверополис / Zootopia (2016) Blu-Ray 1080p | Лицензия

 
Автор Сообщение

Russian Mafia ®

Пол:

Стаж: 1 год 8 месяцев

Сообщений: 4246



Награды: 10 (Подробнее)

Top Releaser 3 (Количество: 1) Mega Seeder 3 (Количество: 1) Mega Seeder 4 (Количество: 1)
Торрент-статистика

Создавать темы 12-Авг-2016 10:03

[Цитировать]

Зверополис / Zootopia
Страна: США
Производство: Walt Disney Animation Studios, Walt Disney Pictures
Год выпуска: 2016
Жанр: мультфильм, боевик, комедия, криминал, приключения, семейный
Продолжительность: 01:48:44
Режиссеры: Байрон Ховард, Рич Мур, Джаред Буш
Авторы сценария: Джаред Буш, Фил Джонстон, Байрон Ховард
В ролях: Джиннифер Гудвин, Джейсон Бейтман, Идрис Эльба, Дженни Слейт, Нейт Торренс, Бонни Хант
Роли дублировали: Мария Ивакова, Антон Лаврентьев, Борис Хасанов, Мария Аронова, Андрей Мошков
Описание: Добро пожаловать в Зверополис — современный город, населенный самыми разными животными, от огромных слонов до крошечных мышек. Зверополис разделен на районы, полностью повторяющие естественную среду обитания разных жителей — здесь есть и элитный район Площадь Сахары и неприветливый Тундратаун. В этом городе появляется новый офицер полиции, жизнерадостная зайчиха Джуди Хоппс, которая с первых дней работы понимает, как сложно быть маленькой и пушистой среди больших и сильных полицейских. Джуди хватается за первую же возможность проявить себя, несмотря на то, что ее партнером будет болтливый хитрый лис Ник Уайлд. Вдвоем им предстоит раскрыть сложное дело, от которого будет зависеть судьба всех обитателей Зверополиса...

Перевод: Профессиональный (полное дублирование) | лицензия
Субтитры: английские, русские-Качество: Blu-Ray 1080p
Формат: BDМV
Видео кодек: AVC
Аудио кодек: DTS-HD | АС3
Видео: 1920x1080 (16:9), 23.976 fps, MPEG-4 AVC Video ~24.0 Мbps avg
Аудио №1: 48.0 kHz, DTS-HD Master Audio, 8 ch, ~4763 kbps / 24-bit | ENG
Аудио №2: 48.0 kHz, AC3 Dolby Digital, 2/0 (L,R) ch, ~320 kbps | ENG / Dolby Surround
Аудио №3: 48.0 kHz, AC3 Dolby Digital, 3/2 (L,C,R,l,r) + LFE ch, ~640 kbps | RUS / DUB
Формат субтитров: Presentation Graphics
Дата премьеры (мир): 11 февраля 2016
Дата премьеры (РФ): 3 марта 2016, «WDSSPR»
релиз на DVD, Blu-Ray: 3 июня 2016, «Уолт Дисней Компани СНГ»

На диске

* Исследование: настоящее жизненное приключение
* Исходники сказки про зверей
* Зоология: круглые столы
* Численность видов
* З.П.Д. Судебные файлы
* Музыкальный клип Шакиры
* Удаленные персонажи
* Удаленные сцены

Blu-Ray Info

DISC INFO:
Disc Title: Zootopia
Disc Size: 42 475 084 449 bytes
Protection: AACS
BD-Java: Yes
BDInfo: 0.5.8
PLAYLIST REPORT:
Name: 00800.MPLS
Length: 1:48:32.422 (h:m:s.ms)
Size: 25 699 012 608 bytes
Total Bitrate: 31,57 Mbps
VIDEO:
Codec Bitrate Deion
----- ------- -----------
MPEG-4 AVC Video 24032 kbps 1080p / 23,976 fps / 16:9 / High Profile 4.1
AUDIO:
Codec Language Bitrate Deion
----- -------- ------- -----------
DTS-HD Master Audio English 4763 kbps 7.1 / 48 kHz / 4763 kbps / 24-bit (DTS Core: 5.1 / 48 kHz / 1509 kbps / 24-bit)
Dolby Digital Audio English 320 kbps 2.0 / 48 kHz / 320 kbps / Dolby Surround
Dolby Digital Audio Russian 640 kbps 5.1 / 48 kHz / 640 kbps
SUBTITLES:
Codec Language Bitrate Deion
----- -------- ------- -----------
Presentation Graphics English 52,274 kbps
Presentation Graphics Russian 43,426 kbps
FILES:
Name Time In Length Size Total Bitrate
---- ------- ------ ---- -------------
00300.M2TS 0:00:00.000 0:00:49.466 188 516 352 30 488
00301.M2TS 0:00:49.466 0:01:20.663 317 399 040 31 479
00302.M2TS 0:02:10.129 0:00:40.415 156 856 320 31 049
00303.M2TS 0:02:50.545 0:00:16.766 65 378 304 31 194
00304.M2TS 0:03:07.312 0:02:37.782 624 236 544 31 650
00305.M2TS 0:05:45.094 0:00:20.812 84 105 216 32 329
00306.M2TS 0:06:05.907 0:01:11.488 314 984 448 35 249
00307.M2TS 0:07:17.395 0:00:50.258 199 532 544 31 761
00308.M2TS 0:08:07.653 0:02:21.683 565 063 680 31 906
00309.M2TS 0:10:29.336 0:00:18.560 75 042 816 32 346
00310.M2TS 0:10:47.897 0:08:38.518 2 051 235 840 31 648
00311.M2TS 0:19:26.415 0:00:18.101 69 703 680 30 806
00312.M2TS 0:19:44.516 0:03:03.725 724 684 800 31 555
00313.M2TS 0:22:48.241 0:00:17.475 71 067 648 32 533
00314.M2TS 0:23:05.717 0:03:26.331 807 702 528 31 317
00315.M2TS 0:26:32.048 0:00:17.392 66 926 592 30 784
00316.M2TS 0:26:49.440 0:02:13.800 524 341 248 31 351
00317.M2TS 0:29:03.241 0:05:19.402 1 245 284 352 31 190
00318.M2TS 0:34:22.643 0:12:03.305 2 824 065 024 31 235
00319.M2TS 0:46:25.949 0:00:17.183 67 227 648 31 298
00320.M2TS 0:46:43.133 0:15:10.534 3 588 096 000 31 525
00321.M2TS 1:01:53.668 0:00:15.306 59 891 712 31 302
00322.M2TS 1:02:08.975 0:11:30.189 2 707 568 640 31 383
00323.M2TS 1:13:39.164 0:00:35.702 140 679 168 31 523
00324.M2TS 1:14:14.866 0:01:15.283 292 853 760 31 120
00325.M2TS 1:15:30.150 0:01:06.232 253 556 736 30 626
00326.M2TS 1:16:36.383 0:16:07.049 3 822 256 128 31 620
00327.M2TS 1:32:43.432 0:00:29.946 117 921 792 31 502
00328.M2TS 1:33:13.379 0:00:47.630 185 991 168 31 239
00329.M2TS 1:34:01.010 0:00:43.293 173 082 624 31 983
00330.M2TS 1:34:44.303 0:04:37.819 1 122 299 904 32 317
00331.M2TS 1:39:22.122 0:09:10.299 2 191 460 352 31 858

Скриншоты

[Профиль] [ЛС]
Показать сообщения:    

Текущее время: Сегодня 07:06

Часовой пояс: GMT



Вы не можете начинать темы
Вы не можете отвечать на сообщения
Вы не можете редактировать свои сообщения
Вы не можете удалять свои сообщения
Вы не можете голосовать в опросах
Вы не можете прикреплять файлы к сообщениям
Вы не можете скачивать файлы