Зверополис / Zootopia (2016) BDRip 1080p от ExKinoRay | Лицензия

 
Автор Сообщение

Russian Mafia ®

Пол:

Стаж: 1 год 8 месяцев

Сообщений: 4256



Награды: 10 (Подробнее)

Top Releaser 4 (Количество: 1) Top Releaser 2 (Количество: 1) Mega Seeder 3 (Количество: 1)
Торрент-статистика

Создавать темы 12-Авг-2016 07:15

[Цитировать]

Информация о фильме
Название: Зверополис
Оригинальное название: Zootopia
Год выхода: 2016
Жанр: Комедия, приключения
Режиссер: Байрон Ховард, Рич Мур, Джаред Буш
В ролях: Джиннифер Гудвин, Джейсон Бейтмен, Идрис Эльба, Дженни Слейт, Нейт Торренс, Бонни Хант, Дон Лейк, Томми Чонг, Дж.К. Симмонс, Октавия Спенсер, Алан Тьюдик, Шакира, Рэймонд С. Перси, Делла Саба, Морис ЛаМарш, Фуския, Джон Ди Маджио, Кэти Лоус, Джесси Корти, Том ’Тайни’ Листер мл.
О фильме:
Добро пожаловать в Зверополис — современный город, населенный самыми разными животными, от огромных слонов до крошечных мышек. Зверополис разделен на районы, полностью повторяющие естественную среду обитания разных жителей — здесь есть и элитный район Площадь Сахары и неприветливый Тундратаун. В этом городе появляется новый офицер полиции, жизнерадостная зайчиха Джуди Хоппс, которая с первых дней работы понимает, как сложно быть маленькой и пушистой среди больших и сильных полицейских. Джуди хватается за первую же возможность проявить себя, несмотря на то, что ее партнером будет болтливый хитрый лис Ник Уайлд. Вдвоем им предстоит раскрыть сложное дело, от которого будет зависеть судьба всех обитателей Зверополиса.

Страна: США
Студия: Walt Disney Animation Studios
Продолжительность: 01:48:32
Перевод: Дублированный | Лицензия
Файл
Кодек: MPEG-4
Качество: BDRip 1080p
Видео: 1920x804, 13.2 Mbit/s, 23.976 fps
Звук:
Аудио #01: 48 kHz, AC3, 5.1, 640 Kbps | Дублированный | Лицензия |
Аудио #02: 48 kHz, DTS, 5.1, 1510 kbps | Оригинал |
Субтитры: Русские, английские

MI

General
Unique ID : 217306447687510474553026307962170189070 (0xA37BB31087B560EBB11C58C9A52F250E)
Complete name : G:VideoZootopia.2016.D.BDRip.1080p.ExKinoRay.mkv
Format : Matroska
Format version : Version 4 / Version 2
File size : 11.7 GiB
Duration : 1h 48mn
Overall bit rate : 15.3 Mbps
Movie name : Zootopia.2016.D.BDRip.1080p.ExKinoRay
Encoded date : UTC 2016-08-12 06:56:22
Writing application : mkvmerge v8.3.0 ('Over the Horizon') 64bit
Writing library : libebml v1.3.1 + libmatroska v1.4.2
Video
ID : 1
Format : AVC
Format/Info : Advanced Video Codec
Format profile : High@L4.1
Format settings, CABAC : Yes
Format settings, ReFrames : 5 frames
Codec ID : V_MPEG4/ISO/AVC
Duration : 1h 48mn
Bit rate : 13.2 Mbps
Width : 1 920 pixels
Height : 804 pixels
Display aspect ratio : 2.40:1
Frame rate mode : Constant
Frame rate : 23.976 (24000/1001) fps
Color space : YUV
Chroma subsampling : 4:2:0
Bit depth : 8 bits
Scan type : Progressive
Bits/(Pixel*Frame) : 0.357
Stream size : 10.0 GiB (86%)
Title : Zootopia.2016.BDRip.1080p.ExKinoRay.***селезень***
Writing library : x264 core 148 r2665+53 6629127 t_mod_Custom [8-bit@all X86_64]
Encoding settings : cabac=1 / ref=5 / deblock=1:-3:-3 / analyse=0x3:0x133 / me=umh / subme=11 / psy=1 / fade_compensate=0.00 / psy_rd=1.00:0.00 / mixed_ref=1 / me_range=32 / chroma_me=1 / trellis=2 / 8x8dct=1 / cqm=0 / deadzone=21,11 / fast_pskip=0 / chroma_qp_offset=-2 / threads=16 / lookahead_threads=2 / sliced_threads=0 / nr=0 / decimate=0 / interlaced=0 / bluray_compat=0 / constrained_intra=0 / fgo=0 / bframes=8 / b_pyramid=2 / b_adapt=2 / b_bias=0 / direct=3 / weightb=1 / open_gop=0 / weightp=2 / keyint=250 / keyint_min=23 / scenecut=40 / intra_refresh=0 / rc_lookahead=150 / rc=crf / mbtree=0 / crf=16.2000 / qcomp=0.60 / qpmin=0:0:0 / qpmax=69:69:69 / qpstep=4 / vbv_maxrate=50000 / vbv_bufsize=62500 / crf_max=0.0 / nal_hrd=none / filler=0 / ip_ratio=1.30 / pb_ratio=1.20 / aq=1:0.70 / aq-sensitivity=10.00 / aq-factor=1.00:1.00:1.00 / aq2=0 / aq3=0
Language : English
Default : Yes
Forced : No
Color range : Limited
Matrix coefficients : BT.709
Audio #1
ID : 2
Format : AC-3
Format/Info : Audio Coding 3
Mode extension : CM (complete main)
Format settings, Endianness : Big
Codec ID : A_AC3
Duration : 1h 48mn
Bit rate mode : Constant
Bit rate : 640 Kbps
Channel(s) : 6 channels
Channel positions : Front: L C R, Side: L R, LFE
Sampling rate : 48.0 KHz
Frame rate : 31.250 fps (1536 spf)
Compression mode : Lossy
Stream size : 498 MiB (4%)
Title : DUB [Blu-ray EUR]
Language : Russian
Default : Yes
Forced : No
Audio #2
ID : 3
Format : DTS
Format/Info : Digital Theater Systems
Mode : 16
Format settings, Endianness : Big
Codec ID : A_DTS
Duration : 1h 48mn
Bit rate mode : Constant
Bit rate : 1 509 Kbps
Channel(s) : 6 channels
Channel positions : Front: L C R, Side: L R, LFE
Sampling rate : 48.0 KHz
Frame rate : 93.750 fps (512 spf)
Bit depth : 24 bits
Compression mode : Lossy
Stream size : 1.14 GiB (10%)
Title : Original
Language : English
Default : No
Forced : No
Text #1
ID : 4
Format : UTF-8
Codec ID : S_TEXT/UTF8
Codec ID/Info : UTF-8 Plain Text
Duration : 1h 38mn
Bit rate : 121 bps
Count of elements : 1727
Stream size : 88.2 KiB (0%)
Title : Full
Language : Russian
Default : No
Forced : No
Text #2
ID : 5
Format : UTF-8
Codec ID : S_TEXT/UTF8
Codec ID/Info : UTF-8 Plain Text
Duration : 1h 35mn
Bit rate : 122 bps
Count of elements : 1373
Stream size : 85.6 KiB (0%)
Title : Full
Language : Ukrainian
Default : No
Forced : No
Text #3
ID : 6
Format : UTF-8
Codec ID : S_TEXT/UTF8
Codec ID/Info : UTF-8 Plain Text
Duration : 1h 38mn
Bit rate : 73 bps
Count of elements : 1700
Stream size : 53.6 KiB (0%)
Title : Full
Language : English
Default : No
Forced : No
Text #4
ID : 7
Format : UTF-8
Codec ID : S_TEXT/UTF8
Codec ID/Info : UTF-8 Plain Text
Duration : 1h 45mn
Bit rate : 82 bps
Count of elements : 2295
Stream size : 64.2 KiB (0%)
Title : SDH
Language : English
Default : No
Forced : No
Menu
00:00:00.000 : en:Prologue
00:00:59.559 : en:Gideon Grey
00:05:50.100 : en:The Police Academy
00:10:05.563 : en:Welcome to Zootopia
00:14:31.537 : en:Meter Maid Duty
00:18:24.019 : en:Pawpsicles
00:26:03.353 : en:The Weasel Chase
00:30:57.439 : en:It's Called A Hustle
00:37:07.100 : en:The Naturalist Club
00:40:43.441 : en:Department Of 10
00:44:31.752 : en:Mr. Big
00:51:40.430 : en:Manchas Goes Savage
00:55:40.378 : en:The Gondola
01:00:48.269 : en:Help from Bellwether
01:03:37.855 : en:Cliffside Asylum
01:09:19.822 : en:We Cracked the Case
01:13:39.165 : en:Hopps Gives Up
01:17:07.372 : en:Hopps' Apology
01:21:52.366 : en:Doug's Laboratory
01:28:19.169 : en:The Natural History Museum
01:32:43.433 : en:Epilogue
01:36:12.141 : en:End Credits

Скриншоты

Релиз от: Автор релиза:
[Профиль] [ЛС]
Показать сообщения:    

Текущее время: Сегодня 22:06

Часовой пояс: GMT



Вы не можете начинать темы
Вы не можете отвечать на сообщения
Вы не можете редактировать свои сообщения
Вы не можете удалять свои сообщения
Вы не можете голосовать в опросах
Вы не можете прикреплять файлы к сообщениям
Вы не можете скачивать файлы