Зверополис / Zootopia (2015) WEBRip 1080p | Трейлер

 
Автор Сообщение

достали все ®

Пол:

Стаж: 1 год 8 месяцев

Сообщений: 6600



Награды: 12 (Подробнее)

Mega Releaser 2 (Количество: 1) Mega Seeder 5 (Количество: 1) Top Releaser 3 (Количество: 1)
Торрент-статистика

Создавать темы 16-Июн-2015 16:06

[Цитировать]

Год выпуска: 2016
Производство: США
Жанр: мультфильм, боевик, комедия, приключения, семейный
Перевод: Дублированный
Режиссер: Байрон Ховард, Рич Мур, Джаред Буш
Продюсеры: Кларк Спенсер, Джон Лассетер
Актеры: Джиннифер Гудвин, Джейсон Бейтман
Описание фильма:
Хитрый лисёнок из Зоотопии оказывается арестованным за преступление, которого он не совершал. Городской полицейский, самодовольный кролик, идёт по его следу, однако когда оба героя становятся жертвами конспирации, им приходится объединиться. История показывает нам, что даже враги от природы могут стать лучшими друзьями.
Дата мировой премьеры: 10 февраля 2016
Дата российской премьеры: 3 июня 2016

Продолжительность: 00:01:37
Качество видео: WEBRip
Видеокодек: MPEG-4 AVC/H.264
Битрейт видео: 7662 Кбит/сек
Размер кадра: 1920x800
Аудиокодек: AAC
Битрейт аудио: 124 Кбит/сек

MediaInfo:

Общее
Полное имя : Zootopia.mp4
Формат : MPEG-4
Профиль формата : Base Media
Идентификатор кодека : isom
Размер файла : 90,4 Мбайт
Продолжительность : 1 м. 37 с.
Режим общего битрейта : Переменный
Общий поток : 7789 Кбит/сек
Дата кодирования : UTC 2015-06-11 15:44:14
Дата пометки : UTC 2015-06-11 15:44:14
Программа кодирования : Lavf51.12.1
Видео
Идентификатор : 1
Формат : AVC
Формат/Информация : Advanced Video Codec
Профиль формата : Baseline@L4
Параметр CABAC формата : Нет
Параметр ReFrames формата : 1 кадр
Параметр GOP формата : M=1, N=12
Идентификатор кодека : avc1
Идентификатор кодека/Информация : Advanced Video Coding
Продолжительность : 1 м. 37 с.
Битрейт : 7662 Кбит/сек
Ширина : 1920 пикселей
Высота : 800 пикселей
Соотношение сторон : 2,40:1
Режим частоты кадров : Постоянный
Частота кадров : 23,976 кадра/сек
Цветовое пространство : YUV
Субдискретизация насыщенности : 4:2:0
Битовая глубина : 8 бит
Тип развёртки : Прогрессивная
Бит/(Пиксели*Кадры) : 0.208
Размер потока : 89,0 Мбайт (98%)
Дата кодирования : UTC 2015-06-11 15:44:14
Дата пометки : UTC 2015-06-11 15:44:14
Аудио
Идентификатор : 2
Формат : AAC
Формат/Информация : Advanced Audio Codec
Профиль формата : LC
Идентификатор кодека : 40
Продолжительность : 1 м. 37 с.
Вид битрейта : Переменный
Битрейт : 124 Кбит/сек
Каналы : 2 канала
Расположение каналов : Front: L R
Частота : 48,0 КГц
Метод сжатия : С потерями
Размер потока : 1,44 Мбайт (2%)
Дата кодирования : UTC 2015-06-11 15:44:14
Дата пометки : UTC 2015-06-11 15:44:14
Скриншоты - -

Скриншоты

[Профиль] [ЛС]
Кто просматривает тему:

Форум Тема Автор Размер
Фантастика, фэнтези Александр Рудазов | Зверолов (2014) [FB2] sergej644 2 MB
Зарубежные Мультфильмы (BDRip 1080p, 720p, Blu-ray, BD-Remux) Зверополис / Zootopia (2016) BDRemux 1080p от ExKinoRay | Лицензия Russian Mafia 22.14 GB
Зарубежные Мультфильмы (BDRip 1080p, 720p, Blu-ray, BD-Remux) Зверополис / Zootopia (2016) BDRemux 1080р | Локализованная версия | Лицензия Russian Mafia 27.1 GB
Зарубежные Мультфильмы (BDRip 1080p, 720p, Blu-ray, BD-Remux) Зверополис / Zootopia (2016) BDRemux | 3D-Video | D, P Russian Mafia 39.9 GB
Зарубежные мультфильмы Зверополис / Zootopia (2016) BDRip 1080p | 3D-Video | HSBS | Лицензия BOSS 9.72 GB
Зарубежные Мультфильмы (BDRip 1080p, 720p, Blu-ray, BD-Remux) Зверополис / Zootopia (2016) BDRip 1080p | 60 FPS | iTunes ODESSA 2.98 GB
Зарубежные Мультфильмы (BDRip 1080p, 720p, Blu-ray, BD-Remux) Зверополис / Zootopia (2016) BDRip 1080p | Лицензия | Локализованная версия Russian Mafia 14.24 GB
Зарубежные Мультфильмы (BDRip 1080p, 720p, Blu-ray, BD-Remux) Зверополис / Zootopia (2016) BDRip 1080p от ExKinoRay | Лицензия Russian Mafia 11.65 GB
Показать сообщения:    

Текущее время: Сегодня 15:43

Часовой пояс: GMT



Вы не можете начинать темы
Вы не можете отвечать на сообщения
Вы не можете редактировать свои сообщения
Вы не можете удалять свои сообщения
Вы не можете голосовать в опросах
Вы не можете прикреплять файлы к сообщениям
Вы не можете скачивать файлы