Звезды на потолке / Светящиеся звезды / I taket lyser stjarnorna / Glowing Stars (Лиза Сиве / Lisa Siwe) [2009, Швеция, драма, DVDRip] Sub Rus (Ali+sher) + Original Swe

 
Автор Сообщение

TorrentFilm ®

Пол:

Стаж: 2 года

Сообщений: 7741



Награды: Нет

Торрент-статистика

Создавать темы 24-Мар-2016 00:09

[Цитировать]

Звезды на потолке / Светящиеся звезды / I taket lyser stjärnorna / Glowing Stars
Страна: Швеция
Жанр: драма
Год выпуска: 2009
Продолжительность: 01:25:47
Перевод: Субтитры Alisher
Cубтитры: русские
Оригинальная аудиодорожка: шведский
Режиссер: Лиза Сиве / Lisa Siwe
В ролях: Йосефин Маттсон, Мика Берндтсдоттер Олен, Анника Халлин, Анки Лиден, Самуэль Хаус.
Описание: Мама четырнадцатилетней Йенны больна раком, и они переезжают к бабушке, чтобы обеспечить маме должный уход. Но у Йенны отношения с бабушкой не складываются. А ещё приходится жить по соседству с первой школьной красавицей, которая постоянно закатывает вечеринки, на которых Йенну, как сначала казалось, не ждут.
Сэмпл: http://sendfile.su/1217724
Качество видео: DVDRip
Формат видео: MKV
Видео: xvid at 2090 Кбит/сек 720 x 394 (1.827) at 25.000 fps
Аудио: MPEG Audio at 128 Кбит/сек 2 канала, 48,0 КГц
Формат субтитров: softsub (SRT)

Пример субтитров

27
00:04:29,207 --> 00:04:32,085
Уллис! Уллис! Уллис! Уллис!
28
00:04:33,047 --> 00:04:38,807
Слушайте все. Я устраиваю вечеринку в пятницу.
Вы все приглашены.
29
00:04:38,807 --> 00:04:41,687
И Вы тоже, Гун-Бритт.
30
00:04:41,687 --> 00:04:45,521
Как не стыдно говорить "все"?
Это точно какой-то заговор.
31
00:04:46,487 --> 00:04:51,287
- Почему?
- Она же издевалась над Даун-Малин из
первой группы, не помнишь?
32
00:04:51,287 --> 00:04:55,121
- Да над Даун-Малин все издевались.
- Да тихо...
33
00:04:57,047 --> 00:04:59,925
- Ты что, хочешь пойти?
- Нет.
34
00:05:22,007 --> 00:05:23,918
Поехали.
35
00:05:34,487 --> 00:05:37,367
Конечно тебе надо пойти.
Это же здорово.
36
00:05:37,367 --> 00:05:43,127
"Все приглашены" не означает, что всех ждут.
Тем более, она совсем тупая.
37
00:05:43,127 --> 00:05:47,927
- А может и Сакке придет.
- Да это не важно.
38
00:05:47,927 --> 00:05:52,727
Знаешь, иногда надо отважиться сделать что-то,
даже если тебе страшно.

MediaInfo

Общее
Уникальный идентификатор : 225642228880501814760467080796288573749 (0xA9C11CCEE463F693B3D13733D6CFE135)
Полное имя : C:\Film\I.Taket.Lyser.Stjärnorna.2009.SWESUB.DVDRip.mkv
Формат : Matroska
Версия формата : Version 4 / Version 2
Размер файла : 1,36 Гбайт
Продолжительность : 1 ч. 25 м.
Общий поток : 2263 Кбит/сек
Дата кодирования : UTC 2016-03-23 12:12:34
Программа кодирования : mkvmerge v8.9.0 ('Father Daughter') 64bit
Библиотека кодирования : libebml v1.3.3 + libmatroska v1.4.4
DURATION : 01:22:26.677000000
NUMBER_OF_FRAMES : 553
NUMBER_OF_BYTES : 34605
_STATISTICS_WRITING_APP : mkvmerge v8.9.0 ('Father Daughter') 64bit
_STATISTICS_WRITING_DATE_UTC : 2016-03-23 12:12:34
_STATISTICS_TAGS : BPS DURATION NUMBER_OF_FRAMES NUMBER_OF_BYTES
Видео
Идентификатор : 1
Формат : xvid
Идентификатор кодека : V_MS/VFW/FOURCC / xvid
Продолжительность : 1 ч. 25 м.
Битрейт : 2090 Кбит/сек
Ширина : 720 пикселей
Высота : 394 пикселя
Соотношение сторон : 1,85:1
Режим частоты кадров : Постоянный
Частота кадров : 25,000 кадров/сек
Бит/(Пиксели*Кадры) : 0.295
Размер потока : 1,25 Гбайт (92%)
Default : Да
Forced : Нет
Аудио
Идентификатор : 2
Формат : MPEG Audio
Версия формата : Version 1
Профиль формата : Layer 3
Режим : Joint stereo
Расширение режима : MS Stereo
Идентификатор кодека : A_MPEG/L3
Идентификатор кодека/Подсказка : MP3
Продолжительность : 1 ч. 25 м.
Вид битрейта : Постоянный
Битрейт : 128 Кбит/сек
Каналы : 2 канала
Частота : 48,0 КГц
Метод сжатия : С потерями
Размер потока : 78,5 Мбайт (6%)
Библиотека кодирования : LAME3.98.2
Default : Да
Forced : Нет
Текст
Идентификатор : 3
Формат : UTF-8
Идентификатор кодека : S_TEXT/UTF8
Идентификатор кодека/Информация : UTF-8 Plain Text
Default : Да
Forced : Нет

Скриншот c названием фильма

Скриншоты

[Профиль] [ЛС]

Создавать темы 12-Июн-2016 07:56 (спустя 2 месяца 19 дней)

Топик был перенесен из форума Фильмы 2011 года в форум Фильмы 2009 года
Russian Mafia
 
Показать сообщения:    

Текущее время: Сегодня 22:08

Часовой пояс: GMT



Вы не можете начинать темы
Вы не можете отвечать на сообщения
Вы не можете редактировать свои сообщения
Вы не можете удалять свои сообщения
Вы не можете голосовать в опросах
Вы не можете прикреплять файлы к сообщениям
Вы не можете скачивать файлы