Звездочка моя ненаглядная (2000) DVDRip-AVC от ExKinoRay

 
Автор Сообщение

sergej644 ®

Пол:

Стаж: 4 года 11 месяцев

Сообщений: 6041

Откуда: Soviet Union



Награды: Нет

Торрент-статистика

Создавать темы 29-Авг-2015 15:31

[Цитировать]

Информация о фильме
Название: Звездочка моя ненаглядная
Год выхода: 2000
Жанр: Мелодрама
Режиссер: Сергей Микаэлян
В ролях: Антон Баранов, Мария Костина, Галина Бокашевская, Валентин Букин, Святослав Суворов, Евгений Сидихин, Татьяна Башлакова, Татьяна Андреева, Юрий Баранов, Всеволод Богомольный, Екатерина Масленникова, Фёдор Селькин, Галина Семёнова, Николай Устинов
О фильме: Антон и Надя молоды, красивы и счастливы. Их семьи еле сводят концы с концами, но это не мешает молодым любить друг друга и надеяться на светлое будущее. Антон как честный человек уходит в армию (действие происходит в 1995 году) и его отправляют в Чечню. Надя с тревогой ждет известий от него. А в это время ее обхаживает одноклассник Гена, молодой предприниматель, которому удалось «закосить» от армии и богатеть день ото дня. Гена клянется Наде в вечной любви, умоляет ее выйти за него замуж, обещая обеспеченную жизнь и крепкую семью. Но Настя хранит верность Антону. Однажды матери Антона приходит извещение с вызовом в Ростов на опознание сына. Настя, пройдя через ад бесконечного ожидания, опознаний, экспертиз и слез находит Антона живым, но без ног. Антон отвергает ее и говорит что между ними все кончено. Но Настя не сдается! Она упорно добивается возрождения к жизни Антона, в противовес обществу, родным... Ведь в 18 лет любовь кажется единственной силой, что заставляет жить! И начинается долгий и мучительный путь героев друг к другу...
Страна: Россия, Ленфильм
Продолжительность: 01:29:54
Перевод: не требуется
Файл
Кодек: MKV
Качество: DVDRip-AVC
Видео: MPEG-4 AVC, 2150 Кбит/с, 682x572@728x572
Звук: AC3, 2 ch, 192 Кбит/с

Скриншоты

Медиа-Инфо

Общее
Уникальный идентификатор : 231829242256138361476099666836120580291 (0xAE68B01E7230C704A47FCBCB126AB0C3)
Полное имя : D:Zvezdochka moj nenagljadnaj_2000-DVDRip-AVC.mkv
Формат : Matroska
Версия формата : Version 2
Размер файла : 1,47 Гбайт
Продолжительность : 1 ч. 29 м.
Общий поток : 2344 Кбит/сек
Дата кодирования : UTC 2015-08-26 00:39:21
Программа кодирования : mkvmerge v5.8.0 ('No Sleep / Pillow') built on Sep 2 2012 15:37:04
Библиотека кодирования : libebml v1.2.3 + libmatroska v1.3.0
Видео
Идентификатор : 1
Формат : AVC
Формат/Информация : Advanced Video Codec
Профиль формата : High@L4.1
Параметр CABAC формата : Да
Параметр ReFrames формата : 15 кадров
Идентификатор кодека : V_MPEG4/ISO/AVC
Продолжительность : 1 ч. 29 м.
Битрейт : 2150 Кбит/сек
Ширина : 682 пикселя
Высота : 572 пикселя
Соотношение сторон : 1,273
Соотношение сторон в оригинале : 1,272
Режим частоты кадров : Постоянный
Частота кадров : 25,000 кадров/сек
Цветовое пространство : YUV
Субдискретизация насыщенности : 4:2:0
Битовая глубина : 8 бит
Тип развёртки : Прогрессивная
Бит/(Пиксели*Кадры) : 0.220
Размер потока : 1,32 Гбайт (90%)
Библиотека кодирования : x264 core 146 r2538 121396c
Настройки программы : cabac=1 / ref=15 / deblock=1:-2:-2 / analyse=0x3:0x133 / me=umh / subme=10 / psy=1 / psy_rd=1.05:0.13 / mixed_ref=1 / me_range=32 / chroma_me=1 / trellis=2 / 8x8dct=1 / cqm=0 / deadzone=21,11 / fast_pskip=0 / chroma_qp_offset=-3 / threads=12 / lookahead_threads=3 / sliced_threads=0 / nr=0 / decimate=0 / interlaced=0 / bluray_compat=0 / constrained_intra=0 / bframes=10 / b_pyramid=2 / b_adapt=2 / b_bias=0 / direct=3 / weightb=1 / open_gop=0 / weightp=2 / keyint=250 / keyint_min=25 / scenecut=40 / intra_refresh=0 / rc=2pass / mbtree=0 / bitrate=2150 / ratetol=1.0 / qcomp=0.65 / qpmin=0 / qpmax=39 / qpstep=4 / cplxblur=20.0 / qblur=0.5 / ip_ratio=1.40 / pb_ratio=1.30 / aq=1:1.00
Язык : English
Default : Да
Forced : Нет
Цветовой диапазон : Limited
Основные цвета : BT.601 PAL
Характеристики трансфера : BT.470 System B, BT.470 System G
Коэффициенты матрицы : BT.601
Аудио
Идентификатор : 2
Формат : AC-3
Формат/Информация : Audio Coding 3
Расширение режима : CM (complete main)
Параметр Endianness формата : Big
Идентификатор кодека : A_AC3
Продолжительность : 1 ч. 29 м.
Вид битрейта : Постоянный
Битрейт : 192 Кбит/сек
Каналы : 2 канала
Расположение каналов : Front: L R
Частота : 48,0 КГц
Битовая глубина : 16 бит
Метод сжатия : С потерями
Размер потока : 123 Мбайт (8%)
Язык : Russian
Default : Да
Forced : Нет

Награды

Приз Гильдии кинорежиссеров России Международный правозащитный КФ «Сталкер—2000» (Москва);
Приз зрительского жюри ОФК стран СНГ и Балтии «Киношок—2000» (Анапа);
Приз III Межгосударственный кинотелефестиваль стран СНГ «Правопорядок и общество».
Релиз от:
Автор релиза:
[Профиль] [ЛС]
Показать сообщения:    

Текущее время: Сегодня 18:57

Часовой пояс: GMT



Вы не можете начинать темы
Вы не можете отвечать на сообщения
Вы не можете редактировать свои сообщения
Вы не можете удалять свои сообщения
Вы не можете голосовать в опросах
Вы не можете прикреплять файлы к сообщениям
Вы не можете скачивать файлы