Звездный десант 3: Мародер / Starship Troopers 3: Marauder (2008) HDRip [H.264]

 
Автор Сообщение

sergej644 ®

Пол:

Стаж: 4 года 11 месяцев

Сообщений: 6046

Откуда: Soviet Union



Награды: Нет

Торрент-статистика

Создавать темы 04-Ноя-2014 09:40

[Цитировать]

-Звездный десант 3: Мародер / Starship Troopers 3: Marauder (2008) HDRip [H.264]- Год выпуска: 2008
Производство: США, ЮАР, Германия, ApolloMovie Beteiligungs
Жанр: Фантастика, Боевик, Приключения
Описание фильма:
Война против жуков продолжается. Звездолёт Федерации терпит крушение на далёкой планете инопланетян OM-1, переплетая судьбы влюблённого командира, маршала космических войск Энока, и некоторых других персонажей, включая миловидную, хотя и жёсткую пилота Лолу Бек. Это заставляет полковника Джонни Рико, героя сражений во времена первого вторжения жуков на планету П, повести группу десантников на отважную спасательную миссию.
Режиссер: Эдвард Ноймайер
Актеры: Каспер Ван Дин, Джолин Блэлок, Борис Коджо, Катрин Оксенберг, Марне Паттерсон, Аманда Донохью, Джастин Роджерс Холл, Стефен Хоган
Продолжительность: 01:44:54
Качество видео: HDRip [H.264] (исх. BDRip 1080p)
Перевод: Многоголосый закадровый + Оригинал (английский)
Язык субтитров: Английские


Автор рипа: ALGORITM
Дата мировой премьеры: 19 июля 2008
Дата выхода DVD релиза: 18 сентября 2008, «Columbia/Sony»
Видеокодек: MPEG-4 AVC/H.264
Битрейт видео: ~2341 kb/s
Размер кадра: 928x504
Аудиокодек: AC3
Аудио 1: 48 kHz, AC-3, 6 ch, Front: L C R, Side: L R, LFE ~448 kbps avg (MVO)
Аудио 2: 48 kHz, AC-3, 2 ch, Front: L R ~192 kbps avg (Оригинал)

Сэмпл: Ссылка

Mediainfo

General
Unique ID : 194734873488742375233752643312324258028 (0x92809289413E447193B114F2760D28EC)
Complete name : D:Starship Troopers 3. Marauder.HDRip-AVC.2008.by.ALGORITM.mkv
Format : Matroska
Format version : Version 4 / Version 2
File size : 2.18 GiB
Duration : 1h 44mn
Overall bit rate : 2 981 Kbps
Movie name : rip by ALGORITM
Encoded date : UTC 2014-11-03 06:38:33
Writing application : mkvmerge v7.3.0 ('Nouages') 32bit built on Oct 22 2014 18:44:01
Writing library : libebml v1.3.0 + libmatroska v1.4.1
DURATION : 01:35:59.600000000
NUMBER_OF_FRAMES : 1184
NUMBER_OF_BYTES : 42424
_STATISTICS_WRITING_APP : mkvmerge v7.3.0 ('Nouages') 32bit built on Oct 22 2014 18:44:01
_STATISTICS_WRITING_DATE_UTC : 2014-11-03 06:38:33
_STATISTICS_TAGS : BPS DURATION NUMBER_OF_FRAMES NUMBER_OF_BYTES
Video
ID : 1
Format : AVC
Format/Info : Advanced Video Codec
Format profile : [url=mailto:High@L4.1]High@L4.1[/url]
Format settings, CABAC : Yes
Format settings, ReFrames : 8 frames
Codec ID : V_MPEG4/ISO/AVC
Duration : 1h 44mn
Bit rate : 2 341 Kbps
Width : 928 pixels
Height : 504 pixels
Display aspect ratio : 1.85:1
Frame rate mode : Constant
Frame rate : 23.976 fps
Color space : YUV
Chroma subsampling : 4:2:0
Bit depth : 8 bits
Scan type : Progressive
Bits/(Pixel*Frame) : 0.209
Stream size : 1.67 GiB (77%)
Writing library : x264 core 130 r2273 b3065e6
Encoding settings : cabac=1 / ref=8 / deblock=1:-1:-1 / analyse=0x3:0x113 / me=umh / subme=11 / psy=1 / psy_rd=1.05:0.05 / mixed_ref=1 / me_range=32 / chroma_me=1 / trellis=2 / 8x8dct=1 / cqm=0 / deadzone=21,11 / fast_pskip=1 / chroma_qp_offset=-3 / threads=3 / lookahead_threads=1 / sliced_threads=0 / nr=0 / decimate=0 / interlaced=0 / bluray_compat=0 / constrained_intra=0 / bframes=13 / b_pyramid=2 / b_adapt=2 / b_bias=0 / direct=3 / weightb=1 / open_gop=0 / weightp=2 / keyint=239 / keyint_min=23 / scenecut=40 / intra_refresh=0 / rc_lookahead=60 / rc=2pass / mbtree=1 / bitrate=2341 / ratetol=1.0 / qcomp=0.75 / qpmin=0 / qpmax=69 / qpstep=4 / cplxblur=20.0 / qblur=0.5 / ip_ratio=1.40 / aq=2:1.00
Language : English
Default : Yes
Forced : No
DURATION : 01:44:54.799000000
NUMBER_OF_FRAMES : 150924
NUMBER_OF_BYTES : 1840356036
_STATISTICS_WRITING_APP : mkvmerge v7.3.0 ('Nouages') 32bit built on Oct 22 2014 18:44:01
_STATISTICS_WRITING_DATE_UTC : 2014-11-03 06:38:33
_STATISTICS_TAGS : BPS DURATION NUMBER_OF_FRAMES NUMBER_OF_BYTES
Audio #1
ID : 2
Format : AC-3
Format/Info : Audio Coding 3
Mode extension : CM (complete main)
Format settings, Endianness : Big
Codec ID : A_AC3
Duration : 1h 44mn
Bit rate mode : Constant
Bit rate : 448 Kbps
Channel(s) : 6 channels
Channel positions : Front: L C R, Side: L R, LFE
Sampling rate : 48.0 KHz
Bit depth : 16 bits
Compression mode : Lossy
Stream size : 336 MiB (15%)
Title : Профессиональный (многоголосый, закадровый)
Default : Yes
Forced : No
Audio #2
ID : 3
Format : AC-3
Format/Info : Audio Coding 3
Mode extension : CM (complete main)
Format settings, Endianness : Big
Codec ID : A_AC3
Duration : 1h 44mn
Bit rate mode : Constant
Bit rate : 192 Kbps
Channel(s) : 2 channels
Channel positions : Front: L R
Sampling rate : 48.0 KHz
Bit depth : 16 bits
Compression mode : Lossy
Stream size : 144 MiB (6%)
Title : Оригинал
Language : English
Default : No
Forced : No
Text
ID : 4
Format : UTF-8
Codec ID : S_TEXT/UTF8
Codec ID/Info : UTF-8 Plain Text
Language : English
Default : Yes
Forced : No
Скриншоты:
Время раздачи: 24/7 (круглосуточно)
[Профиль] [ЛС]

Создавать темы 06-Авг-2015 23:01 (спустя 9 месяцев 2 дня)

Топик был перенесен из форума Фильмы до 2014 года в форум Фильмы до 2012 года
sergej644
 

Создавать темы 12-Июн-2016 08:51 (спустя 1 год 7 месяцев)

Топик был перенесен из форума Фильмы 2011 года в форум Фильмы 2006-2008 года
Russian Mafia
 
Показать сообщения:    

Текущее время: Сегодня 04:29

Часовой пояс: GMT



Вы не можете начинать темы
Вы не можете отвечать на сообщения
Вы не можете редактировать свои сообщения
Вы не можете удалять свои сообщения
Вы не можете голосовать в опросах
Вы не можете прикреплять файлы к сообщениям
Вы не можете скачивать файлы