Звездный десант / Starship Troopers (Пол Верховен) [1997 г., фантастика, боевик, триллер, приключения, BDRip-AVC] [DUB]

 
Автор Сообщение

Bathory ®

Пол:

Стаж: 1 год 5 месяцев

Сообщений: 289



Награды: 3 (Подробнее)

Girls (Количество: 1) За внесенный вклад в развитие сайта (Количество: 1) Друг (Количество: 1)
Торрент-статистика

Создавать темы 09-Авг-2017 06:54

[Цитировать]

Звездный десант / Starship Troopers- Информация о фильме
Название: Звездный десант
Оригинальное название: Starship Troopers
Год выхода: 1997
Жанр: фантастика, боевик, триллер, приключения
Режиссер: Пол Верховен
В ролях: Каспер Ван Дин, Дина Мейер, Дэнис Ричардс, Джэйк Бьюзи, Нил Патрик Харрис, Клэнси Браун, Сет Гиллиам, Патрик Малдун, Майкл Айронсайд, Ру Маккланахэн
О фильме:
В новом тысячелетии над человечеством нависла смертельная опасность. Несметные полчища гигантских разумных жуков с далекой системы планет Клендату угрожают всему живому во вселенной.
Солдат элитного подразделения Джонни Рико и пилот Кармен в составе звездного десанта Землян на космическом военном корабле Тикондерога отправляются в зловещие глубины космоса, чтобы в последней решающей схватке решить судьбу Земли.
В их руках — современнейшее оружие и будущее людской расы.

Страна: США
Студия: TriStar Pictures, Touchstone Pictures, Big Bug Pictures
Продолжительность: 02:09:27
Перевод: Дубляж
Файл
Кодек: AVC
Качество: BDRip-AVC |Blu-Ray 1080p|
Видео: 736x400, 739 kbps, 23,976 fps, 0,105 Bits/(Pixel*Frame)
Звук: AAC, 48 kHz, 2 ch, 64 kbps
Субтитры: русские, английские

MI

Общее
Unique ID : 237190333536123563547418459013500719843 (0xB27132539153A1CEB30478EC145152E3)
Complete name : D:Starship.Troopers.1997.BDRip-AVC.MegaPeer.mkv
Format : Matroska
Format version : Version 4 / Version 2
File size : 745 Мбайт
Duration : 2 ч. 9 м.
Overall bit rate : 804 Кбит/сек
Encoded date : UTC 2017-08-09 06:16:20
Writing application : mkvmerge v14.0.0 ('Flow') 64bit
Writing library : libebml v1.3.4 + libmatroska v1.4.5
Видео
ID : 1
Format : AVC
Format/Info : Advanced Video Codec
Format profile : High@L4.1
Format settings, CABAC : Да
Format settings, ReFrames : 12 кадров
Codec ID : V_MPEG4/ISO/AVC
Duration : 2 ч. 9 м.
Bit rate : 739 Кбит/сек
Width : 736 пикселей
Height : 400 пикселей
Display aspect ratio : 1,85:1
Frame rate mode : Постоянный
Frame rate : 23,976 (24000/1001) кадра/сек
Color space : YUV
Chroma subsampling : 4:2:0
Bit depth : 8 бит
Scan type : Прогрессивная
Bits/(Pixel*Frame) : 0.105
Stream size : 684 Мбайт (92%)
Writing library : x264 core 152 r2851 ba24899
Encoding settings : cabac=1 / ref=12 / deblock=1:-3:-3 / analyse=0x3:0x133 / me=umh / subme=11 / psy=1 / psy_rd=1.00:0.07 / mixed_ref=1 / me_range=32 / chroma_me=1 / trellis=2 / 8x8dct=1 / cqm=0 / deadzone=21,11 / fast_pskip=0 / chroma_qp_offset=-3 / threads=12 / lookahead_threads=3 / sliced_threads=0 / nr=0 / decimate=0 / interlaced=0 / bluray_compat=0 / constrained_intra=0 / bframes=14 / b_pyramid=2 / b_adapt=2 / b_bias=0 / direct=3 / weightb=1 / open_gop=0 / weightp=2 / keyint=240 / keyint_min=23 / scenecut=0 / intra_refresh=0 / rc_lookahead=60 / rc=2pass / mbtree=1 / bitrate=739 / ratetol=1.0 / qcomp=0.60 / qpmin=0 / qpmax=51 / qpstep=4 / cplxblur=15.0 / qblur=0.5 / vbv_maxrate=50000 / vbv_bufsize=62500 / nal_hrd=none / filler=0 / ip_ratio=1.40 / aq=2:1.00
Default : Да
Forced : Нет
Аудио
ID : 2
Format : AAC
Format/Info : Advanced Audio Codec
Format profile : HE-AAC / LC
Codec ID : A_AAC
Duration : 2 ч. 9 м.
Bit rate : 64,0 Кбит/сек
Channel(s) : 2 канала
Channel positions : Front: L R
Sampling rate : 48,0 КГц / 24,0 КГц
Frame rate : 23,438 кадра/сек (1024 spf)
Compression mode : С потерями
Delay relative to video : 31 мс.
Stream size : 59,3 Мбайт (8%)
Language : Russian
Default : Да
Forced : Нет
Текст #1
ID : 3
Format : UTF-8
Codec ID : S_TEXT/UTF8
Codec ID/Info : UTF-8 Plain Text
Duration : 1 ч. 58 м.
Bit rate : 77 бит/сек
Count of elements : 1186
Stream size : 67,5 Кбайт (0%)
Language : Russian
Default : Да
Forced : Нет
Текст #2
ID : 4
Format : UTF-8
Codec ID : S_TEXT/UTF8
Codec ID/Info : UTF-8 Plain Text
Duration : 1 ч. 58 м.
Bit rate : 55 бит/сек
Count of elements : 1430
Stream size : 47,7 Кбайт (0%)
Language : English
Default : Нет
Forced : Нет

Скриншоты

Релиз:
[Профиль] [ЛС]
Показать сообщения:    

Текущее время: Сегодня 17:32

Часовой пояс: GMT



Вы не можете начинать темы
Вы не можете отвечать на сообщения
Вы не можете редактировать свои сообщения
Вы не можете удалять свои сообщения
Вы не можете голосовать в опросах
Вы не можете прикреплять файлы к сообщениям
Вы не можете скачивать файлы