Звездные войны: Эпизод 1 – Скрытая угроза / Star Wars: Episode I - The Phantom Menace (1999) BDRip 720p | D, P, P2, A

 
Автор Сообщение

Russian Mafia ®

Пол:

Стаж: 1 год 8 месяцев

Сообщений: 4257



Награды: 10 (Подробнее)

Mega Seeder 4 (Количество: 1) Top Releaser 5 (Количество: 1) Top Releaser 4 (Количество: 1)
Торрент-статистика

Создавать темы 22-Июл-2016 19:21

[Цитировать]

Звездные войны: Эпизод 1 – Скрытая угрозаStar Wars: Episode I - The Phantom Menace«У каждой саги есть начало»- Страна: США
Жанр: фантастика, фэнтези, боевик, приключения
Год выпуска: 1999
Продолжительность: 02:16:12
Перевод: Профессиональный (полное дублирование), Профессиональный (многоголосый, закадровый), Профессиональный (двухголосый, закадровый), 2 x Авторский, Оригинальный
Субтитры: русские (2 x Forced + 3 x Full + 2 x комментарии), английские (Forced + Full).-Режиссер: Джордж Лукас / George Lucas-В ролях: Лиам Нисон (Qui-Gon Jinn), Юэн МакГрегор (Obi-Wan Kenobi), Натали Портман (Queen Amidala / Padmé), Джейк Ллойд (Anakin Skywalker), Иен МакДермид (Senator Palpatine), Рэй Парк (Darth Maul), Теренс Стэмп (Chancellor Valorum), Сэмюэл Л. Джексон (Mace Windu), Пернилла Аугуст (Shmi Skywalker), Хью Куарши (Captain Panaka), Оливер Форд Дейвис (Sio Bibble), Ахмед Бест (Jar Jar Binks, озвучка)
Дублёры: Владимир Летенков (Qui-Gon Jinn), Евгений Иванов (Obi-Wan Kenobi), Юлия Николаева (Queen Amidala / Padmé), Игорь Семенов (Anakin Skywalker), Вадим Яковлев (Senator Palpatine), Александр Лушин (Darth Maul), Сергей Воробьев (Chancellor Valorum; Mace Windu), Светлана Шейченко (Shmi Skywalker), Артур Ваха (Captain Panaka), Вадим Никитин (Sio Bibble; Ki - Adi - Mundi), Александр Завьялов (Jar Jar Binks), Валерий Кухарешин (C-3PO)-Описание: Мирная и процветающая планета Набу. Торговая федерация, не желая платить налоги, вступает в прямой конфликт с королевой Амидалой, правящей на планете, что приводит к войне. На стороне королевы и республики в ней участвуют два рыцаря-джедая: учитель и ученик, Квай-Гон-Джин и Оби-Ван Кеноби...-
MPAA: PG - Рекомендуется присутствие родителей-Семпл-Качество: BDRip
Контейнер: MKV
Видео: AVC, 1280x544 (2.35:1), 5750 kbps, 23,976 fps, 0,344 bpp
Аудио №1: русский / AC3 / 5.1 / 48 kHz / 448 kbps / Дубляж
Аудио №2: русский / AC3 / 5.1 / 48 kHz / 384 kbps / MVO ( Киномания )
Аудио №3: русский / AC3 / 5.1 / 48 kHz / 448 kbps / DVO ( Tycoon )
Аудио №4: русский / AC3 / 5.1 / 48 kHz / 448 kbps / AVO ( Гаврилов )
Аудио №5: русский / AC3 / 5.1 / 48 kHz / 448 kbps / AVO ( Живов )
Аудио №6: английский / AC3 / 5.1 / 48 kHz / 448 kbps
Аудио №7: английский / AC3 / 2.0 / 48 kHz / 224 kbps / Аудиокомментарий №1
Аудио №8: английский / AC3 / 2.0 / 48 kHz / 224 kbps / Аудиокомментарий №2
Навигация по главам: есть-

Media Info

Формат : Matroska
Версия формата : Version 2
Размер файла : 8,39 Гбайт
Продолжительность : 2 ч. 16 м.
Общий поток : 8823 Кбит/сек
Название фильма : = Звездные войны: Эпизод 1 – Скрытая угроза / Star Wars: Episode I - The Phantom Menace (1999) BDRip 720p by SC Kosmos =
Дата кодирования : UTC 2016-05-10 17:05:58
Программа кодирования : mkvmerge v5.8.0 ('No Sleep / Pillow') built on Sep 2 2012 15:37:04
Библиотека кодирования : libebml v1.2.3 + libmatroska v1.3.0
Attachment : Yes
Видео
Идентификатор : 1
Формат : AVC
Формат/Информация : Advanced Video Codec
Профиль формата : High@L4.1
Параметр CABAC формата : Да
Параметр ReFrames формата : 10 кадров
Идентификатор кодека : V_MPEG4/ISO/AVC
Продолжительность : 2 ч. 16 м.
Битрейт : 5750 Кбит/сек
Ширина : 1280 пикселей
Высота : 544 пикселя
Соотношение сторон : 2,35:1
Режим частоты кадров : Постоянный
Частота кадров : 23,976 кадра/сек
Цветовое пространство : YUV
Субдискретизация насыщенности : 4:2:0
Битовая глубина : 8 бит
Тип развёртки : Прогрессивная
Бит/(Пиксели*Кадры) : 0.344
Размер потока : 5,30 Гбайт (63%)
Заголовок : Звездные войны: Эпизод 1 – Скрытая угроза / Star Wars: Episode I - The Phantom Menace (1999) BDRip 720p by SC Kosmos
Библиотека кодирования : x264 core 146 r2538 121396c
Настройки программы : cabac=1 / ref=10 / deblock=1:-3:-3 / analyse=0x3:0x113 / me=umh / subme=11 / psy=1 / psy_rd=1.00:0.00 / mixed_ref=1 / me_range=32 / chroma_me=1 / trellis=2 / 8x8dct=1 / cqm=0 / deadzone=21,11 / fast_pskip=0 / chroma_qp_offset=-2 / threads=12 / lookahead_threads=3 / sliced_threads=0 / nr=0 / decimate=0 / interlaced=0 / bluray_compat=0 / constrained_intra=0 / bframes=10 / b_pyramid=2 / b_adapt=2 / b_bias=0 / direct=3 / weightb=1 / open_gop=0 / weightp=2 / keyint=240 / keyint_min=23 / scenecut=40 / intra_refresh=0 / rc=2pass / mbtree=0 / bitrate=5750 / ratetol=1.0 / qcomp=0.60 / qpmin=0 / qpmax=69 / qpstep=4 / cplxblur=20.0 / qblur=0.5 / ip_ratio=1.40 / pb_ratio=1.30 / aq=1:1.00 / zones=187000,195905,b=0.25
Язык : English
Default : Да
Forced : Нет
Аудио #1
Идентификатор : 2
Формат : AC-3
Формат/Информация : Audio Coding 3
Расширение режима : CM (complete main)
Параметр Endianness формата : Big
Идентификатор кодека : A_AC3
Продолжительность : 2 ч. 16 м.
Вид битрейта : Постоянный
Битрейт : 448 Кбит/сек
Каналы : 6 каналов
Расположение каналов : Front: L C R, Side: L R, LFE
Частота : 48,0 КГц
Битовая глубина : 16 бит
Метод сжатия : С потерями
Размер потока : 436 Мбайт (5%)
Заголовок : Дублаж
Язык : Russian
Default : Да
Forced : Нет
Аудио #2
Идентификатор : 3
Формат : AC-3
Формат/Информация : Audio Coding 3
Расширение режима : CM (complete main)
Параметр Endianness формата : Big
Идентификатор кодека : A_AC3
Продолжительность : 2 ч. 16 м.
Вид битрейта : Постоянный
Битрейт : 384 Кбит/сек
Каналы : 6 каналов
Расположение каналов : Front: L C R, Side: L R, LFE
Частота : 48,0 КГц
Битовая глубина : 16 бит
Метод сжатия : С потерями
Размер потока : 374 Мбайт (4%)
Заголовок : MVO ( Киномания )
Язык : Russian
Default : Нет
Forced : Нет
Аудио #3
Идентификатор : 4
Формат : AC-3
Формат/Информация : Audio Coding 3
Расширение режима : CM (complete main)
Параметр Endianness формата : Big
Идентификатор кодека : A_AC3
Продолжительность : 2 ч. 16 м.
Вид битрейта : Постоянный
Битрейт : 448 Кбит/сек
Каналы : 6 каналов
Расположение каналов : Front: L C R, Side: L R, LFE
Частота : 48,0 КГц
Битовая глубина : 16 бит
Метод сжатия : С потерями
Размер потока : 436 Мбайт (5%)
Заголовок : DVO ( Tycoon )
Default : Нет
Forced : Нет
Аудио #4
Идентификатор : 5
Формат : AC-3
Формат/Информация : Audio Coding 3
Расширение режима : CM (complete main)
Параметр Endianness формата : Big
Идентификатор кодека : A_AC3
Продолжительность : 2 ч. 16 м.
Вид битрейта : Постоянный
Битрейт : 448 Кбит/сек
Каналы : 6 каналов
Расположение каналов : Front: L C R, Side: L R, LFE
Частота : 48,0 КГц
Битовая глубина : 16 бит
Метод сжатия : С потерями
Размер потока : 436 Мбайт (5%)
Заголовок : AVO ( Гаврилов )
Язык : Russian
Default : Нет
Forced : Нет
Аудио #5
Идентификатор : 6
Формат : AC-3
Формат/Информация : Audio Coding 3
Расширение режима : CM (complete main)
Параметр Endianness формата : Big
Идентификатор кодека : A_AC3
Продолжительность : 2 ч. 16 м.
Вид битрейта : Постоянный
Битрейт : 448 Кбит/сек
Каналы : 6 каналов
Расположение каналов : Front: L C R, Side: L R, LFE
Частота : 48,0 КГц
Битовая глубина : 16 бит
Метод сжатия : С потерями
Размер потока : 436 Мбайт (5%)
Заголовок : AVO ( Живов )
Язык : Russian
Default : Нет
Forced : Нет
Аудио #6
Идентификатор : 7
Формат : AC-3
Формат/Информация : Audio Coding 3
Расширение режима : CM (complete main)
Параметр Endianness формата : Big
Идентификатор кодека : A_AC3
Продолжительность : 2 ч. 16 м.
Вид битрейта : Постоянный
Битрейт : 448 Кбит/сек
Каналы : 6 каналов
Расположение каналов : Front: L C R, Side: L R, LFE
Частота : 48,0 КГц
Битовая глубина : 16 бит
Метод сжатия : С потерями
Размер потока : 436 Мбайт (5%)
Язык : English
Default : Нет
Forced : Нет
Аудио #7
Идентификатор : 8
Формат : AC-3
Формат/Информация : Audio Coding 3
Расширение режима : CM (complete main)
Параметр Endianness формата : Big
Идентификатор кодека : A_AC3
Продолжительность : 2 ч. 16 м.
Вид битрейта : Постоянный
Битрейт : 224 Кбит/сек
Каналы : 2 канала
Расположение каналов : Front: L R
Частота : 48,0 КГц
Битовая глубина : 16 бит
Метод сжатия : С потерями
Размер потока : 218 Мбайт (3%)
Заголовок : Аудиокомментарий №1 с Джорджем Лукасом, Риком МакКаллумом, Беном Берттом, Робом Коулманом, Джоном Ноллом, Дэннисом Муреном и Скоттом Скуайерсом.
Язык : English
Default : Нет
Forced : Нет
Аудио #8
Идентификатор : 9
Формат : AC-3
Формат/Информация : Audio Coding 3
Расширение режима : CM (complete main)
Параметр Endianness формата : Big
Идентификатор кодека : A_AC3
Продолжительность : 2 ч. 16 м.
Вид битрейта : Постоянный
Битрейт : 224 Кбит/сек
Каналы : 2 канала
Расположение каналов : Front: L R
Частота : 48,0 КГц
Битовая глубина : 16 бит
Метод сжатия : С потерями
Размер потока : 218 Мбайт (3%)
Заголовок : Аудиокомментарий №2 из архивных интервью с актёрами и создателями фильма
Язык : English
Default : Нет
Forced : Нет
Текст #1
Идентификатор : 10
Формат : UTF-8
Идентификатор кодека : S_TEXT/UTF8
Идентификатор кодека/Информация : UTF-8 Plain Text
Заголовок : Forced
Язык : Russian
Default : Да
Forced : Да
Текст #2
Идентификатор : 11
Формат : UTF-8
Идентификатор кодека : S_TEXT/UTF8
Идентификатор кодека/Информация : UTF-8 Plain Text
Заголовок : Forced 2
Язык : Russian
Default : Нет
Forced : Нет
Текст #3
Идентификатор : 12
Формат : UTF-8
Идентификатор кодека : S_TEXT/UTF8
Идентификатор кодека/Информация : UTF-8 Plain Text
Язык : Russian
Default : Нет
Forced : Нет
Текст #4
Идентификатор : 13
Формат : UTF-8
Идентификатор кодека : S_TEXT/UTF8
Идентификатор кодека/Информация : UTF-8 Plain Text
Заголовок : R5
Язык : Russian
Default : Нет
Forced : Нет
Текст #5
Идентификатор : 14
Формат : UTF-8
Идентификатор кодека : S_TEXT/UTF8
Идентификатор кодека/Информация : UTF-8 Plain Text
Заголовок : Tycoon
Язык : Russian
Default : Нет
Forced : Нет
Текст #6
Идентификатор : 15
Формат : UTF-8
Идентификатор кодека : S_TEXT/UTF8
Идентификатор кодека/Информация : UTF-8 Plain Text
Заголовок : Forced
Язык : English
Default : Нет
Forced : Нет
Текст #7
Идентификатор : 16
Формат : UTF-8
Идентификатор кодека : S_TEXT/UTF8
Идентификатор кодека/Информация : UTF-8 Plain Text
Язык : English
Default : Нет
Forced : Нет
Текст #8
Идентификатор : 17
Формат : UTF-8
Идентификатор кодека : S_TEXT/UTF8
Идентификатор кодека/Информация : UTF-8 Plain Text
Заголовок : Соmmеntаry№1
Язык : Russian
Default : Нет
Forced : Нет
Текст #9
Идентификатор : 18
Формат : UTF-8
Идентификатор кодека : S_TEXT/UTF8
Идентификатор кодека/Информация : UTF-8 Plain Text
Заголовок : Соmmеntаry№2
Язык : Russian
Default : Нет
Forced : Нет
Меню
00:00:00.000 : en:00:00:00.000
00:00:21.103 : en:00:00:21.103
00:01:52.736 : en:00:01:52.736
00:07:55.348 : en:00:07:55.348
00:09:55.970 : en:00:09:55.970
00:11:18.760 : en:00:11:18.760
00:13:24.177 : en:00:13:24.177
00:14:49.804 : en:00:14:49.804
00:17:14.240 : en:00:17:14.240
00:20:40.948 : en:00:20:40.948
00:22:25.301 : en:00:22:25.301
00:25:12.885 : en:00:25:12.885
00:29:32.811 : en:00:29:32.811
00:31:41.481 : en:00:31:41.481
00:35:51.731 : en:00:35:51.731
00:40:48.570 : en:00:40:48.570
00:44:16.320 : en:00:44:16.320
00:52:04.579 : en:00:52:04.579
00:55:03.842 : en:00:55:03.842
00:58:27.920 : en:00:58:27.920
01:02:27.702 : en:01:02:27.702
01:05:33.012 : en:01:05:33.012
01:10:06.911 : en:01:10:06.911
01:11:17.939 : en:01:11:17.939
01:16:20.951 : en:01:16:20.951
01:18:08.100 : en:01:18:08.100
01:20:26.363 : en:01:20:26.363
01:24:18.177 : en:01:24:18.177
01:26:44.782 : en:01:26:44.782
01:29:54.721 : en:01:29:54.721
01:31:02.414 : en:01:31:02.414
01:33:08.541 : en:01:33:08.541
01:37:21.417 : en:01:37:21.417
01:39:06.314 : en:01:39:06.314
01:42:33.729 : en:01:42:33.729
01:44:41.565 : en:01:44:41.565
01:46:19.247 : en:01:46:19.247
01:48:07.730 : en:01:48:07.730
01:50:24.951 : en:01:50:24.951
01:56:47.667 : en:01:56:47.667
01:59:13.061 : en:01:59:13.061
02:00:31.390 : en:02:00:31.390
02:01:21.314 : en:02:01:21.314
02:02:23.377 : en:02:02:23.377
02:03:56.970 : en:02:03:56.970
02:05:15.131 : en:02:05:15.131
02:06:25.994 : en:02:06:25.994
02:07:23.176 : en:02:07:23.176
02:08:28.992 : en:02:08:28.992
02:09:53.534 : en:02:09:53.534
-

Скриншоты


-За русские дороги ОГРОМНОЕ СПАСИБО - -=Osetin=-, wolodik, konstantin49.
[Профиль] [ЛС]
Показать сообщения:    

Текущее время: Сегодня 08:04

Часовой пояс: GMT



Вы не можете начинать темы
Вы не можете отвечать на сообщения
Вы не можете редактировать свои сообщения
Вы не можете удалять свои сообщения
Вы не можете голосовать в опросах
Вы не можете прикреплять файлы к сообщениям
Вы не можете скачивать файлы