Звездные войны: Сага / Star Wars: The Complete Saga (1977-2005) BDRip-AVC от R.G. HD-Films | 60 fps

 
Автор Сообщение

достали все ®

Пол:

Стаж: 1 год 8 месяцев

Сообщений: 6581



Награды: 12 (Подробнее)

Mega Seeder 3 (Количество: 1) Mega Releaser 2 (Количество: 1) Mega Seeder 2 (Количество: 1)
Торрент-статистика

Создавать темы 20-Сен-2015 19:01

[Цитировать]

Звездные войны: Эпизод 1 – Скрытая угроза

-Название: Звездные войны: Эпизод 1 – Скрытая угроза
Оригинальное название: Star Wars: Episode I - The Phantom Menace
Год выпуска: 1999
Страна: США
Жанр: фантастика, фэнтези, боевик, приключения
Продолжительность: 02:16:10
Перевод: Дубляж
Субтитры: русские (Форсированные), русские (Полные), английские (Полные)-Режиссер: Джордж Лукас / George Lucas-В ролях: Лиам Нисон (Qui-Gon Jinn), Юэн МакГрегор (Obi-Wan Kenobi), Натали Портман (Queen Amidala / Padmé), Джейк Ллойд (Anakin Skywalker), Иен МакДермид (Senator Palpatine), Рэй Парк (Darth Maul), Теренс Стэмп (Chancellor Valorum), Сэмюэл Л. Джексон (Mace Windu), Пернилла Аугуст (Shmi Skywalker), Хью Куарши (Captain Panaka), Оливер Форд Дейвис (Sio Bibble), Ахмед Бест (Jar Jar Binks, озвучка)-Описание:
Мирная и процветающая планета Набу. Торговая федерация, не желая платить налоги, вступает в прямой конфликт с королевой Амидалой, правящей на планете, что приводит к войне. На стороне королевы и республики в ней участвуют два рыцаря-джедая: учитель и ученик, Квай-Гон-Джин и Оби-Ван Кеноби...-Рейтинг

imdb.com: 6.50 (453 096)
MPAA: PG - Рекомендуется присутствие родителей-Качество: BDRip-AVC 60fps
Формат: MKV
Видео: AVC, 1024x432 (2.35:1), 3500 kbps, 59,940 fps, 0,132 bpp
Аудио: русский / AC3 / 5.1 / 48 kHz / 640 kbps / 16 bit
Навигация по главам: есть- -MI
General
Unique ID : 211556546853312202800747115180245320903 (0x9F284F10E5EE165C902AA6EACF9304C7)
Format : Matroska
Format version : Version 4 / Version 2
File size : 3.94 GiB
Duration : 2h 16mn
Overall bit rate : 4 144 Kbps
Movie name : Tiberiumsun69
Encoded date : UTC 2015-09-20 14:50:55
Writing application : mkvmerge v8.3.0 ('Over the Horizon') 64bit
Writing library : libebml v1.3.1 + libmatroska v1.4.2
Attachment : Yes
Video
ID : 1
Format : AVC
Format/Info : Advanced Video Codec
Format profile : High@L4.1
Format settings, CABAC : Yes
Format settings, ReFrames : 4 frames
Codec ID : V_MPEG4/ISO/AVC
Duration : 2h 16mn
Bit rate : 3 500 Kbps
Width : 1 024 pixels
Height : 432 pixels
Display aspect ratio : 2.35:1
Frame rate : 59.940 fps
Color space : YUV
Chroma subsampling : 4:2:0
Bit depth : 8 bits
Scan type : Progressive
Bits/(Pixel*Frame) : 0.132
Stream size : 3.25 GiB (83%)
Title : Tiberiumsun69
Writing library : x264 core 146 r2538 121396c
Encoding settings : cabac=1 / ref=3 / deblock=1:0:0 / analyse=0x3:0x113 / me=umh / subme=9 / psy=1 / psy_rd=1.00:0.10 / mixed_ref=1 / me_range=32 / chroma_me=1 / trellis=2 / 8x8dct=1 / cqm=0 / deadzone=21,11 / fast_pskip=0 / chroma_qp_offset=-3 / threads=12 / lookahead_threads=3 / sliced_threads=0 / nr=0 / decimate=1 / interlaced=0 / bluray_compat=0 / constrained_intra=0 / bframes=16 / b_pyramid=2 / b_adapt=2 / b_bias=0 / direct=3 / weightb=1 / open_gop=0 / weightp=2 / keyint=600 / keyint_min=59 / scenecut=40 / intra_refresh=0 / rc_lookahead=40 / rc=2pass / mbtree=0 / bitrate=3500 / ratetol=1.0 / qcomp=0.60 / qpmin=0 / qpmax=69 / qpstep=4 / cplxblur=20.0 / qblur=0.5 / vbv_maxrate=14000 / vbv_bufsize=14000 / nal_hrd=none / filler=0 / ip_ratio=1.40 / pb_ratio=1.30 / aq=1:1.00
Language : English
Default : Yes
Forced : No
Audio
ID : 2
Format : AC-3
Format/Info : Audio Coding 3
Mode extension : CM (complete main)
Codec ID : A_AC3
Duration : 2h 16mn
Bit rate mode : Constant
Bit rate : 640 Kbps
Channel(s) : 6 channels
Channel positions : Front: L C R, Side: L R, LFE
Sampling rate : 48.0 KHz
Bit depth : 16 bits
Compression mode : Lossy
Stream size : 623 MiB (15%)
Title : Дубляж
Language : Russian
Default : Yes
Forced : No
Text #1
ID : 3
Format : UTF-8
Codec ID : S_TEXT/UTF8
Codec ID/Info : UTF-8 Plain Text
Title : Форсированные
Language : Russian
Default : Yes
Forced : No
Text #2
ID : 4
Format : UTF-8
Codec ID : S_TEXT/UTF8
Codec ID/Info : UTF-8 Plain Text
Title : Полные
Language : Russian
Default : No
Forced : No
Text #3
ID : 5
Format : UTF-8
Codec ID : S_TEXT/UTF8
Codec ID/Info : UTF-8 Plain Text
Title : Полные
Language : English
Default : No
Forced : No
Menu
00:00:00.000 : en:Chapter 00
00:00:21.104 : en:Chapter 01
00:01:52.737 : en:Chapter 02
00:07:55.349 : en:Chapter 03
00:09:55.970 : en:Chapter 04
00:11:18.761 : en:Chapter 05
00:13:24.178 : en:Chapter 06
00:14:49.805 : en:Chapter 07
00:17:14.241 : en:Chapter 08
00:20:40.948 : en:Chapter 09
00:22:25.301 : en:Chapter 10
00:25:12.886 : en:Chapter 11
00:29:32.812 : en:Chapter 12
00:31:41.482 : en:Chapter 13
00:35:51.732 : en:Chapter 14
00:40:48.571 : en:Chapter 15
00:44:16.320 : en:Chapter 16
00:52:04.579 : en:Chapter 17
00:55:03.842 : en:Chapter 18
00:58:27.921 : en:Chapter 19
01:02:27.702 : en:Chapter 20
01:05:33.012 : en:Chapter 21
01:10:06.911 : en:Chapter 22
01:11:17.939 : en:Chapter 23
01:16:20.951 : en:Chapter 24
01:18:08.100 : en:Chapter 25
01:20:26.363 : en:Chapter 26
01:24:18.178 : en:Chapter 27
01:26:44.782 : en:Chapter 28
01:29:54.722 : en:Chapter 29
01:31:02.415 : en:Chapter 30
01:33:08.541 : en:Chapter 31
01:37:21.417 : en:Chapter 32
01:39:06.314 : en:Chapter 33
01:42:33.730 : en:Chapter 34
01:44:41.566 : en:Chapter 35
01:46:19.247 : en:Chapter 36
01:48:07.731 : en:Chapter 37
01:50:24.951 : en:Chapter 38
01:56:47.667 : en:Chapter 39
01:59:13.062 : en:Chapter 40
02:00:31.390 : en:Chapter 41
02:01:21.315 : en:Chapter 42
02:02:23.377 : en:Chapter 43
02:03:56.971 : en:Chapter 44
02:05:15.132 : en:Chapter 45
02:06:25.995 : en:Chapter 46
02:07:23.177 : en:Chapter 47
02:08:28.992 : en:Chapter 48
02:09:53.535 : en:Chapter 49

Скриншоты

Звёздные войны: Эпизод 2 – Атака клонов

-Название: Звёздные войны: Эпизод 2 – Атака клонов
Оригинальное название: Star Wars: Episode II - Attack of the Clones
Год выпуска: 2002
Страна: США
Жанр: фантастика, фэнтези, боевик, приключения
Продолжительность: 02:22:27
Перевод: Дубляж
Субтитры: русские (Форсированные), русские (Полные), английские (Полные)-Режиссер: Джордж Лукас / George Lucas-В ролях: Юэн МакГрегор (Obi-Wan Kenobi), Хейден Кристенсен (Anakin Skywalker), Натали Портман (Padmé), Кристофер Ли (Count Dooku / Darth Tyranus), Сэмюэл Л. Джексон (Mace Windu), Фрэнк Оз (Yoda, озвучка), Иен МакДермид (Supreme Chancellor Palpatine), Пернилла Аугуст (Shmi Skywalker), Темуэра Моррисон (Jango Fett), Дэниэл Логан (Boba Fett), Джимми Смитс (Senator Bail Organa), Джек Томпсон (Cliegg Lars)-Описание:
Действие разворачивается через 10 лет после событий, описанных в первом эпизоде знаменитой саги. Республика все глубже погружается в пучину противоречий и хаоса. Движение сепаратистов, представленное сотнями планет и могущественным альянсом корпораций, грозит стать новой угрозой для Галактики, с которой не смогут справиться даже джедаи.
Назревающий конфликт, заранее спланированный могущественными, но пока еще не разоблаченными силами, ведет к началу Клонических войн и к закату республики. Чтобы противостоять угрозе вселенских масштабов, Верховный канцлер Палпатин добивается консолидации власти в республике в своих руках и отдает приказ о создании республиканской армии для поддержки малочисленной группы джедаев в их борьбе с превосходящим противником.-Рейтинг

imdb.com: 6.70 (388 756)
MPAA: PG - Рекомендуется присутствие родителей-Качество: BDRip-AVC 60fps
Формат: MKV
Видео: AVC, 1024x432 (2.35:1), 3300 kbps, 59,940 fps, 0,124 bpp
Аудио: русский / AC3 / 5.1 / 48 kHz / 640 kbps / 16 bit
Навигация по главам: есть- -MI
General
Unique ID : 177970352322612679674624512836267448474 (0x85E3D7D3C580E86F9F8DE8AA870C989A)
Format : Matroska
Format version : Version 4 / Version 2
File size : 3.92 GiB
Duration : 2h 22mn
Overall bit rate : 3 943 Kbps
Movie name : Tiberiumsun69
Encoded date : UTC 2015-09-20 14:56:54
Writing application : mkvmerge v8.3.0 ('Over the Horizon') 64bit
Writing library : libebml v1.3.1 + libmatroska v1.4.2
Attachment : Yes
Video
ID : 1
Format : AVC
Format/Info : Advanced Video Codec
Format profile : High@L4.1
Format settings, CABAC : Yes
Format settings, ReFrames : 4 frames
Codec ID : V_MPEG4/ISO/AVC
Duration : 2h 22mn
Bit rate : 3 300 Kbps
Width : 1 024 pixels
Height : 432 pixels
Display aspect ratio : 2.35:1
Frame rate : 59.940 fps
Color space : YUV
Chroma subsampling : 4:2:0
Bit depth : 8 bits
Scan type : Progressive
Bits/(Pixel*Frame) : 0.124
Stream size : 3.21 GiB (82%)
Title : Tiberiumsun69
Writing library : x264 core 146 r2538 121396c
Encoding settings : cabac=1 / ref=3 / deblock=1:0:0 / analyse=0x3:0x113 / me=umh / subme=9 / psy=1 / psy_rd=1.00:0.10 / mixed_ref=1 / me_range=32 / chroma_me=1 / trellis=2 / 8x8dct=1 / cqm=0 / deadzone=21,11 / fast_pskip=0 / chroma_qp_offset=-3 / threads=12 / lookahead_threads=3 / sliced_threads=0 / nr=0 / decimate=1 / interlaced=0 / bluray_compat=0 / constrained_intra=0 / bframes=16 / b_pyramid=2 / b_adapt=2 / b_bias=0 / direct=3 / weightb=1 / open_gop=0 / weightp=2 / keyint=600 / keyint_min=59 / scenecut=40 / intra_refresh=0 / rc_lookahead=40 / rc=2pass / mbtree=0 / bitrate=3300 / ratetol=1.0 / qcomp=0.60 / qpmin=0 / qpmax=69 / qpstep=4 / cplxblur=20.0 / qblur=0.5 / vbv_maxrate=14000 / vbv_bufsize=14000 / nal_hrd=none / filler=0 / ip_ratio=1.40 / pb_ratio=1.30 / aq=1:1.00
Language : English
Default : Yes
Forced : No
Audio
ID : 2
Format : AC-3
Format/Info : Audio Coding 3
Mode extension : CM (complete main)
Codec ID : A_AC3
Duration : 2h 22mn
Bit rate mode : Constant
Bit rate : 640 Kbps
Channel(s) : 6 channels
Channel positions : Front: L C R, Side: L R, LFE
Sampling rate : 48.0 KHz
Bit depth : 16 bits
Compression mode : Lossy
Stream size : 652 MiB (16%)
Title : Дубляж
Language : Russian
Default : Yes
Forced : No
Text #1
ID : 3
Format : UTF-8
Codec ID : S_TEXT/UTF8
Codec ID/Info : UTF-8 Plain Text
Title : Форсированные
Language : Russian
Default : Yes
Forced : No
Text #2
ID : 4
Format : UTF-8
Codec ID : S_TEXT/UTF8
Codec ID/Info : UTF-8 Plain Text
Title : Полные
Language : Russian
Default : No
Forced : No
Text #3
ID : 5
Format : UTF-8
Codec ID : S_TEXT/UTF8
Codec ID/Info : UTF-8 Plain Text
Title : Полные
Language : English
Default : No
Forced : No
Menu
00:00:00.000 : en:Chapter 00
00:00:23.440 : en:Chapter 01
00:01:50.527 : en:Chapter 02
00:04:22.095 : en:Chapter 03
00:07:00.002 : en:Chapter 04
00:10:28.961 : en:Chapter 05
00:14:19.899 : en:Chapter 06
00:21:35.291 : en:Chapter 07
00:24:48.236 : en:Chapter 08
00:29:45.866 : en:Chapter 09
00:31:33.473 : en:Chapter 10
00:33:48.526 : en:Chapter 11
00:34:50.505 : en:Chapter 12
00:36:05.121 : en:Chapter 13
00:38:25.927 : en:Chapter 14
00:39:25.362 : en:Chapter 15
00:40:56.369 : en:Chapter 16
00:42:12.780 : en:Chapter 17
00:44:02.014 : en:Chapter 18
00:45:50.414 : en:Chapter 19
00:47:50.074 : en:Chapter 20
00:50:21.016 : en:Chapter 21
00:53:01.427 : en:Chapter 22
00:56:44.818 : en:Chapter 23
00:58:56.699 : en:Chapter 24
01:00:46.059 : en:Chapter 25
01:03:41.192 : en:Chapter 26
01:06:24.355 : en:Chapter 27
01:11:18.774 : en:Chapter 28
01:14:01.353 : en:Chapter 29
01:15:23.475 : en:Chapter 30
01:17:48.872 : en:Chapter 31
01:21:40.353 : en:Chapter 32
01:23:46.895 : en:Chapter 33
01:28:10.158 : en:Chapter 34
01:30:52.904 : en:Chapter 35
01:33:38.487 : en:Chapter 36
01:35:27.845 : en:Chapter 37
01:42:44.867 : en:Chapter 38
01:45:14.015 : en:Chapter 39
01:49:53.627 : en:Chapter 40
01:56:22.475 : en:Chapter 41
01:57:47.601 : en:Chapter 42
02:00:29.180 : en:Chapter 43
02:04:48.980 : en:Chapter 44
02:07:41.944 : en:Chapter 45
02:11:23.667 : en:Chapter 46
02:12:54.882 : en:Chapter 47
02:14:49.247 : en:Chapter 48
02:15:54.938 : en:Chapter 49

Скриншоты

Звёздные войны: Эпизод 3 – Месть Ситхов

-Название: Звёздные войны: Эпизод 3 – Месть Ситхов
Оригинальное название: Star Wars: Episode III - Revenge of the Sith
Год выпуска: 2005
Страна: США
Жанр: фантастика, фэнтези, боевик, приключения
Продолжительность: 02:20:05
Перевод: Дубляж
Субтитры: русские (Форсированные), русские (Полные), английские (Полные)-Режиссер: Джордж Лукас / George Lucas-В ролях: Юэн МакГрегор (Obi-Wan Kenobi), Натали Портман (Padmé), Хейден Кристенсен (Anakin Skywalker), Иен МакДермид (Supreme Chancellor Palpatine), Сэмюэл Л. Джексон (Mace Windu), Джимми Смитс (Senator Bail Organa), Фрэнк Оз (Yoda, озвучка), Энтони Дэниелс (C-3PO), Кристофер Ли (Count Dooku), Киша Касл-Хьюз (Queen of Naboo), Сайлас Карсон (Ki-Adi-Mundi / Nute Gunray), Джей Лагаая (Captain Typho)-Описание:
Со времен, описанных во втором эпизоде, прошло 3 года. Энакин окончательно встает на темную сторону силы и превращается в Дарта Вейдера. Республика гибнет под ударами крепнущей Империи, Джедаи теряют контроль над галактикой, а Падме готовится к тому, чтобы стать матерью. Все эти события будут разворачиваться на фоне грандиозной битвы, знаменующей финал Клонических войн...-Рейтинг

imdb.com: 7.70 (440 447)
MPAA: PG-13 - Детям до 13 лет просмотр не желателен-Качество: BDRip-AVC 60fps
Формат: MKV
Видео: AVC, 1024x440 (2.35:1), 3370 kbps, 59,940 fps, 0,125 bpp
Аудио: русский / AC3 / 5.1 / 48 kHz / 640 kbps / 16 bit
Навигация по главам: есть- -MI
General
Unique ID : 201753029118353626429853760791000436348 (0x97C83852E6F494EC893593159590CE7C)
Format : Matroska
Format version : Version 4 / Version 2
File size : 3.93 GiB
Duration : 2h 20mn
Overall bit rate : 4 012 Kbps
Movie name : Tiberiumsun69
Encoded date : UTC 2015-09-20 15:06:51
Writing application : mkvmerge v8.3.0 ('Over the Horizon') 64bit
Writing library : libebml v1.3.1 + libmatroska v1.4.2
Attachment : Yes
Video
ID : 1
Format : AVC
Format/Info : Advanced Video Codec
Format profile : High@L4.1
Format settings, CABAC : Yes
Format settings, ReFrames : 4 frames
Codec ID : V_MPEG4/ISO/AVC
Duration : 2h 20mn
Bit rate : 3 370 Kbps
Width : 1 024 pixels
Height : 440 pixels
Display aspect ratio : 2.35:1
Frame rate : 59.940 fps
Color space : YUV
Chroma subsampling : 4:2:0
Bit depth : 8 bits
Scan type : Progressive
Bits/(Pixel*Frame) : 0.125
Stream size : 3.22 GiB (82%)
Title : Tiberiumsun69
Writing library : x264 core 146 r2538 121396c
Encoding settings : cabac=1 / ref=3 / deblock=1:0:0 / analyse=0x3:0x113 / me=umh / subme=9 / psy=1 / psy_rd=1.00:0.10 / mixed_ref=1 / me_range=32 / chroma_me=1 / trellis=2 / 8x8dct=1 / cqm=0 / deadzone=21,11 / fast_pskip=0 / chroma_qp_offset=-3 / threads=12 / lookahead_threads=3 / sliced_threads=0 / nr=0 / decimate=1 / interlaced=0 / bluray_compat=0 / constrained_intra=0 / bframes=16 / b_pyramid=2 / b_adapt=2 / b_bias=0 / direct=3 / weightb=1 / open_gop=0 / weightp=2 / keyint=600 / keyint_min=59 / scenecut=40 / intra_refresh=0 / rc_lookahead=40 / rc=2pass / mbtree=0 / bitrate=3370 / ratetol=1.0 / qcomp=0.60 / qpmin=0 / qpmax=69 / qpstep=4 / cplxblur=20.0 / qblur=0.5 / vbv_maxrate=14000 / vbv_bufsize=14000 / nal_hrd=none / filler=0 / ip_ratio=1.40 / pb_ratio=1.30 / aq=1:1.00
Language : English
Default : Yes
Forced : No
Audio
ID : 2
Format : AC-3
Format/Info : Audio Coding 3
Mode extension : CM (complete main)
Codec ID : A_AC3
Duration : 2h 20mn
Bit rate mode : Constant
Bit rate : 640 Kbps
Channel(s) : 6 channels
Channel positions : Front: L C R, Side: L R, LFE
Sampling rate : 48.0 KHz
Bit depth : 16 bits
Compression mode : Lossy
Stream size : 641 MiB (16%)
Title : Дубляж
Language : Russian
Default : Yes
Forced : No
Text #1
ID : 3
Format : UTF-8
Codec ID : S_TEXT/UTF8
Codec ID/Info : UTF-8 Plain Text
Title : Форсированные
Language : Russian
Default : Yes
Forced : No
Text #2
ID : 4
Format : UTF-8
Codec ID : S_TEXT/UTF8
Codec ID/Info : UTF-8 Plain Text
Title : Полные
Language : Russian
Default : No
Forced : No
Text #3
ID : 5
Format : UTF-8
Codec ID : S_TEXT/UTF8
Codec ID/Info : UTF-8 Plain Text
Title : Полные
Language : English
Default : No
Forced : No
Menu #1
00:00:00.000 : en:Opening Logos
00:00:23.523 : en:Revenge of the Sith
00:01:50.068 : en:Battle Over Coruscant
00:08:28.133 : en:General Grievous
00:11:23.349 : en:Rescuing the Chancellor
00:18:33.738 : en:Confronting Grievous
00:23:40.461 : en:Happy Reunions
00:27:37.698 : en:Grievous on Utapau
00:29:12.960 : en:Bad Dreams
00:33:18.914 : en:Counsel With Yoda
00:35:45.435 : en:The Chancellor's Request
00:36:47.997 : en:On the Jedi Council
00:38:21.466 : en:Secret Assignment
00:40:17.457 : en:Not the Chosen One?
00:41:18.601 : en:Seeds of Distrust
00:42:41.058 : en:Tragedy of Darth Plagueis
00:48:01.587 : en:Kashyyyk
00:50:20.517 : en:Brothers' Farewell
00:52:24.933 : en:A Hero Lost
00:53:58.026 : en:Arrival on Utapau
00:56:26.466 : en:Obi-Wan Vs. Grievous
01:00:56.278 : en:Jedi War Council
01:01:56.546 : en:Sidious Revealed
01:05:26.047 : en:Utapau Chase
01:07:40.598 : en:Mace Learns the Truth
01:09:06.976 : en:Anakin's Fatal Decision
01:10:52.999 : en:Mace Vs. Sidious
01:15:19.223 : en:Rise Lord Vader
01:19:15.250 : en:March on the Jedi Temple
01:20:37.458 : en:Order Sixty-Six
01:24:20.597 : en:Time to Leave
01:27:56.521 : en:"Wait for Me"
01:29:57.392 : en:The Heroes Regroup
01:33:40.406 : en:Birth of the Empire
01:36:39.460 : en:The Terrible Truth
01:38:35.535 : en:Obi-Wan Confronts Padme
01:41:24.370 : en:Padme's Departure
01:42:57.004 : en:"You're Breaking My Heart"
01:48:18.784 : en:Yoda Visits the Emperor
01:50:59.444 : en:Battle of the Heroes
01:52:44.007 : en:Yoda Vs. Sidious
01:54:22.856 : en:Narrow Escapes
01:56:54.925 : en:Immolation
02:02:20.875 : en:The Emperor Arrives
02:03:32.864 : en:Secret Delivery
02:05:19.637 : en:Birth and Rebirth
02:07:37.108 : en:Darth Vader Awakes
02:08:57.063 : en:The Future of the Twins
02:12:04.959 : en:A New Hope
02:13:47.353 : en:End Credits
Menu #2
00:00:00.097 : en:00:00:00.097 / en:00:00:00.097

Скриншоты

Звёздные войны: Эпизод 4 – Новая надежда

-Название: Звёздные войны: Эпизод 4 – Новая надежда
Оригинальное название: Star Wars
Год выпуска: 1977
Страна: США
Жанр: фантастика, фэнтези, боевик, приключения
Продолжительность: 02:04:44
Перевод: Дубляж
Субтитры: русские (Форсированные), русские (Полные), английские (Полные)-Режиссер: Джордж Лукас / George Lucas-В ролях: Марк Хэмилл (Luke Skywalker), Харрисон Форд (Han Solo), Кэрри Фишер (Princess Leia Organa), Питер Кушинг (Grand Moff Tarkin), Алек Гиннесс (Ben Obi-Wan Kenobi), Энтони Дэниелс (C-3PO), Кенни Бейкер (R2-D2), Питер Мейхью (Chewbacca), Дэвид Праус (Darth Vader), Фил Браун (Uncle Owen), Шила Фрейзер (Aunt Beru), Джек Пёрвис (Chief Jawa)-Описание:
Татуин. Планета-пустыня. Уже постаревший рыцарь Джедай Оби Ван Кеноби спасает молодого Люка Скайуокера, когда тот пытается отыскать пропавшего дроида. С этого момента Люк осознает свое истинное назначение: он один из рыцарей Джедай. В то время как гражданская война охватила галактику, а войска повстанцев ведут бои против сил злого Императора, к Люку и Оби Вану присоединяется отчаянный пилот-наемник Хан Соло, и в сопровождении двух дроидов, R2D2 и C-3PO, этот необычный отряд отправляется на поиски предводителя повстанцев - принцессы Леи. Героям предстоит отчаянная схватка с устрашающим Дартом Вейдером - правой рукой Императора и его секретным оружием - «Звездой Смерти».-Рейтинг

imdb.com: 8.70 (778 964)
MPAA: PG - Рекомендуется присутствие родителей-Качество: BDRip-AVC 60fps
Формат: MKV
Видео: AVC, 1024x432 (2.35:1), 3850 kbps, 59,940 fps, 0,145 bpp
Аудио: русский / AC3 / 5.1 / 48 kHz / 640 kbps / 16 bit
Навигация по главам: есть- -MI
General
Unique ID : 233447024082210721372873947467992984765 (0xAFA042EBD17C77BE9882025B1E02ECBD)
Format : Matroska
Format version : Version 4 / Version 2
File size : 3.92 GiB
Duration : 2h 4mn
Overall bit rate : 4 495 Kbps
Movie name : Tiberiumsun69
Encoded date : UTC 2015-09-20 15:12:45
Writing application : mkvmerge v8.3.0 ('Over the Horizon') 64bit
Writing library : libebml v1.3.1 + libmatroska v1.4.2
Attachment : Yes
Video
ID : 1
Format : AVC
Format/Info : Advanced Video Codec
Format profile : High@L4.1
Format settings, CABAC : Yes
Format settings, ReFrames : 4 frames
Codec ID : V_MPEG4/ISO/AVC
Duration : 2h 4mn
Bit rate : 3 850 Kbps
Width : 1 024 pixels
Height : 432 pixels
Display aspect ratio : 2.35:1
Frame rate : 59.940 fps
Color space : YUV
Chroma subsampling : 4:2:0
Bit depth : 8 bits
Scan type : Progressive
Bits/(Pixel*Frame) : 0.145
Stream size : 3.28 GiB (84%)
Title : Tiberiumsun69
Writing library : x264 core 146 r2538 121396c
Encoding settings : cabac=1 / ref=3 / deblock=1:0:0 / analyse=0x3:0x113 / me=umh / subme=9 / psy=1 / psy_rd=1.00:0.10 / mixed_ref=1 / me_range=32 / chroma_me=1 / trellis=2 / 8x8dct=1 / cqm=0 / deadzone=21,11 / fast_pskip=0 / chroma_qp_offset=-3 / threads=12 / lookahead_threads=3 / sliced_threads=0 / nr=0 / decimate=1 / interlaced=0 / bluray_compat=0 / constrained_intra=0 / bframes=16 / b_pyramid=2 / b_adapt=2 / b_bias=0 / direct=3 / weightb=1 / open_gop=0 / weightp=2 / keyint=600 / keyint_min=59 / scenecut=40 / intra_refresh=0 / rc_lookahead=40 / rc=2pass / mbtree=0 / bitrate=3850 / ratetol=1.0 / qcomp=0.60 / qpmin=0 / qpmax=69 / qpstep=4 / cplxblur=20.0 / qblur=0.5 / vbv_maxrate=14000 / vbv_bufsize=14000 / nal_hrd=none / filler=0 / ip_ratio=1.40 / pb_ratio=1.30 / aq=1:1.00
Language : English
Default : Yes
Forced : No
Audio
ID : 2
Format : AC-3
Format/Info : Audio Coding 3
Mode extension : CM (complete main)
Codec ID : A_AC3
Duration : 2h 4mn
Bit rate mode : Constant
Bit rate : 640 Kbps
Channel(s) : 6 channels
Channel positions : Front: L C R, Side: L R, LFE
Sampling rate : 48.0 KHz
Bit depth : 16 bits
Compression mode : Lossy
Stream size : 571 MiB (14%)
Title : Дубляж
Language : Russian
Default : Yes
Forced : No
Text #1
ID : 3
Format : UTF-8
Codec ID : S_TEXT/UTF8
Codec ID/Info : UTF-8 Plain Text
Title : Форсированные
Language : Russian
Default : Yes
Forced : No
Text #2
ID : 4
Format : UTF-8
Codec ID : S_TEXT/UTF8
Codec ID/Info : UTF-8 Plain Text
Title : Полные
Language : Russian
Default : No
Forced : No
Text #3
ID : 5
Format : UTF-8
Codec ID : S_TEXT/UTF8
Codec ID/Info : UTF-8 Plain Text
Title : Полные
Language : English
Default : No
Forced : No
Menu
00:00:00.000 : en:Chapter 00
00:00:21.021 : en:Chapter 01
00:01:53.404 : en:Chapter 02
00:04:52.792 : en:Chapter 03
00:07:28.281 : en:Chapter 04
00:08:54.867 : en:Chapter 05
00:11:21.389 : en:Chapter 06
00:15:40.230 : en:Chapter 07
00:19:40.177 : en:Chapter 08
00:23:33.203 : en:Chapter 09
00:25:32.614 : en:Chapter 10
00:27:45.497 : en:Chapter 11
00:29:12.709 : en:Chapter 12
00:32:34.077 : en:Chapter 13
00:34:53.007 : en:Chapter 14
00:36:54.210 : en:Chapter 15
00:39:05.634 : en:Chapter 16
00:41:42.291 : en:Chapter 17
00:42:31.547 : en:Chapter 18
00:44:51.730 : en:Chapter 19
00:47:52.619 : en:Chapter 20
00:49:57.994 : en:Chapter 21
00:51:13.695 : en:Chapter 22
00:52:40.740 : en:Chapter 23
00:54:12.332 : en:Chapter 24
00:56:59.916 : en:Chapter 25
00:59:14.175 : en:Chapter 26
01:03:10.828 : en:Chapter 27
01:06:16.472 : en:Chapter 28
01:08:21.972 : en:Chapter 29
01:12:32.389 : en:Chapter 30
01:14:12.656 : en:Chapter 31
01:17:13.712 : en:Chapter 32
01:19:09.327 : en:Chapter 33
01:21:29.384 : en:Chapter 34
01:25:00.220 : en:Chapter 35
01:27:02.091 : en:Chapter 36
01:29:56.182 : en:Chapter 37
01:33:48.456 : en:Chapter 38
01:36:39.877 : en:Chapter 39
01:38:06.755 : en:Chapter 40
01:39:37.513 : en:Chapter 41
01:41:24.995 : en:Chapter 42
01:42:37.401 : en:Chapter 43
01:45:02.629 : en:Chapter 44
01:49:42.784 : en:Chapter 45
01:55:18.911 : en:Chapter 46
01:57:47.393 : en:Chapter 47
01:58:28.518 : en:Chapter 48
02:00:14.498 : en:Chapter 49

Скриншоты

Звёздные войны: Эпизод 5 – Империя наносит ответный удар

-Название: Звёздные войны: Эпизод 5 – Империя наносит ответный удар
Оригинальное название: Star Wars: Episode V - The Empire Strikes Back
Год выпуска: 1980
Страна: США
Жанр: фантастика, фэнтези, боевик, приключения
Продолжительность: 02:07:21
Перевод: Дубляж
Субтитры: русские (Форсированные), русские (Полные), английские (Полные)-Режиссер: Ирвин Кершнер / Irvin Kershner-В ролях: Марк Хэмилл (Luke Skywalker), Харрисон Форд (Han Solo), Кэрри Фишер (Princess Leia), Билли Ди Уильямс (Lando Calrissian), Энтони Дэниелс (C-3PO), Дэвид Праус (Darth Vader), Питер Мейхью (Chewbacca), Кенни Бейкер (R2-D2), Фрэнк Оз (Yoda, озвучка), Алек Гиннесс (Ben (Obi-Wan), Kenobi), Джереми Буллок (Boba Fett), Джон Холлис (Lando's Aide)-Описание:
Борьба за Галактику обостряется в пятом эпизоде космической саги. Войска Императора начинают массированную атаку на повстанцев и их союзников.
Хан Соло и принцесса Лейя укрываются в Заоблачном Городе, в котором их и захватывает Дарт Вейдер, в то время как Люк Скайуокер находится на таинственной планете джунглей Дагоба.
Там Мастер - джедай Йода обучает молодого рыцаря навыкам обретения Силы. Люк даже не предполагает, как скоро ему придется воспользоваться знаниями старого Мастера: впереди битва с превосходящими силами Императора и смертельный поединок с Дартом Вейдером.-Рейтинг

imdb.com: 8.80 (709 108)
MPAA: PG - Рекомендуется присутствие родителей-Качество: BDRip-AVC 60fps
Формат: MKV
Видео: AVC, 1024x432 (2.35:1), 3780 kbps, 59,940 fps, 0,143 bpp
Аудио: русский / AC3 / 5.1 / 48 kHz / 640 kbps / 16 bit
Навигация по главам: есть- -MI
General
Unique ID : 238257983212396057351319239574647571469 (0xB33ED185024EC1539767627FA4D9840D)
Format : Matroska
Format version : Version 4 / Version 2
File size : 3.94 GiB
Duration : 2h 7mn
Overall bit rate : 4 426 Kbps
Movie name : Tiberiumsun69
Encoded date : UTC 2015-09-20 15:19:26
Writing application : mkvmerge v8.3.0 ('Over the Horizon') 64bit
Writing library : libebml v1.3.1 + libmatroska v1.4.2
Attachment : Yes
Video
ID : 1
Format : AVC
Format/Info : Advanced Video Codec
Format profile : High@L4.1
Format settings, CABAC : Yes
Format settings, ReFrames : 4 frames
Codec ID : V_MPEG4/ISO/AVC
Duration : 2h 7mn
Bit rate : 3 780 Kbps
Width : 1 024 pixels
Height : 432 pixels
Display aspect ratio : 2.35:1
Frame rate : 59.940 fps
Color space : YUV
Chroma subsampling : 4:2:0
Bit depth : 8 bits
Scan type : Progressive
Bits/(Pixel*Frame) : 0.143
Stream size : 3.29 GiB (84%)
Title : Tiberiumsun69
Writing library : x264 core 146 r2538 121396c
Encoding settings : cabac=1 / ref=3 / deblock=1:0:0 / analyse=0x3:0x113 / me=umh / subme=9 / psy=1 / psy_rd=1.00:0.10 / mixed_ref=1 / me_range=32 / chroma_me=1 / trellis=2 / 8x8dct=1 / cqm=0 / deadzone=21,11 / fast_pskip=0 / chroma_qp_offset=-3 / threads=12 / lookahead_threads=3 / sliced_threads=0 / nr=0 / decimate=1 / interlaced=0 / bluray_compat=0 / constrained_intra=0 / bframes=16 / b_pyramid=2 / b_adapt=2 / b_bias=0 / direct=3 / weightb=1 / open_gop=0 / weightp=2 / keyint=600 / keyint_min=59 / scenecut=40 / intra_refresh=0 / rc_lookahead=40 / rc=2pass / mbtree=0 / bitrate=3780 / ratetol=1.0 / qcomp=0.60 / qpmin=0 / qpmax=69 / qpstep=4 / cplxblur=20.0 / qblur=0.5 / vbv_maxrate=14000 / vbv_bufsize=14000 / nal_hrd=none / filler=0 / ip_ratio=1.40 / pb_ratio=1.30 / aq=1:1.00
Language : English
Default : Yes
Forced : No
Audio
ID : 2
Format : AC-3
Format/Info : Audio Coding 3
Mode extension : CM (complete main)
Codec ID : A_AC3
Duration : 2h 7mn
Bit rate mode : Constant
Bit rate : 640 Kbps
Channel(s) : 6 channels
Channel positions : Front: L C R, Side: L R, LFE
Sampling rate : 48.0 KHz
Bit depth : 16 bits
Compression mode : Lossy
Stream size : 583 MiB (14%)
Title : Дубляж
Language : Russian
Default : Yes
Forced : No
Text #1
ID : 3
Format : UTF-8
Codec ID : S_TEXT/UTF8
Codec ID/Info : UTF-8 Plain Text
Title : Форсированные
Language : Russian
Default : Yes
Forced : No
Text #2
ID : 4
Format : UTF-8
Codec ID : S_TEXT/UTF8
Codec ID/Info : UTF-8 Plain Text
Title : Полные
Language : Russian
Default : No
Forced : No
Text #3
ID : 5
Format : UTF-8
Codec ID : S_TEXT/UTF8
Codec ID/Info : UTF-8 Plain Text
Title : Полные
Language : English
Default : No
Forced : No
Menu
00:00:00.000 : en:Chapter 00
00:00:23.523 : en:Chapter 01
00:01:50.068 : en:Chapter 02
00:08:28.132 : en:Chapter 03
00:11:23.349 : en:Chapter 04
00:18:33.737 : en:Chapter 05
00:23:40.460 : en:Chapter 06
00:27:37.697 : en:Chapter 07
00:29:12.959 : en:Chapter 08
00:33:18.913 : en:Chapter 09
00:35:45.434 : en:Chapter 10
00:36:47.997 : en:Chapter 11
00:38:21.465 : en:Chapter 12
00:40:17.456 : en:Chapter 13
00:41:18.601 : en:Chapter 14
00:42:41.058 : en:Chapter 15
00:48:01.587 : en:Chapter 16
00:50:20.517 : en:Chapter 17
00:52:24.933 : en:Chapter 18
00:53:58.026 : en:Chapter 19
00:56:26.466 : en:Chapter 20
01:00:56.277 : en:Chapter 21
01:01:56.546 : en:Chapter 22
01:05:26.047 : en:Chapter 23
01:07:40.598 : en:Chapter 24
01:09:06.975 : en:Chapter 25
01:10:52.997 : en:Chapter 26
01:15:19.223 : en:Chapter 27
01:19:15.250 : en:Chapter 28
01:20:37.457 : en:Chapter 29
01:24:20.597 : en:Chapter 30
01:27:56.521 : en:Chapter 31
01:29:57.390 : en:Chapter 32
01:33:40.406 : en:Chapter 33
01:36:39.460 : en:Chapter 34
01:38:35.533 : en:Chapter 35
01:41:24.369 : en:Chapter 36
01:42:57.004 : en:Chapter 37
01:48:18.783 : en:Chapter 38
01:50:59.444 : en:Chapter 39
01:52:44.007 : en:Chapter 40
01:54:22.855 : en:Chapter 41
01:56:54.924 : en:Chapter 42
02:02:20.875 : en:Chapter 43
02:03:32.863 : en:Chapter 44
02:05:19.637 : en:Chapter 45
02:07:37.107 : en:Chapter 46
02:08:57.062 : en:Chapter 47
02:12:04.958 : en:Chapter 48
02:13:47.352 : en:Chapter 49

Скриншоты

Звёздные войны: Эпизод 6 – Возвращение Джедая

-Название: Звёздные войны: Эпизод 6 – Возвращение Джедая
Оригинальное название: Star Wars: Episode VI - Return of the Jedi
Год выпуска: 1983
Страна: США
Жанр: фантастика, фэнтези, боевик, приключения
Продолжительность: 02:14:47
Перевод: Дубляж
Субтитры: русские (Форсированные), русские (Полные), английские (Полные)-Режиссер: Ричард Маркуэнд / Richard Marquand-В ролях: Марк Хэмилл (Luke Skywalker), Харрисон Форд (Han Solo), Кэрри Фишер (Princess Leia), Билли Ди Уильямс (Lando Calrissian), Энтони Дэниелс (C-3PO), Питер Мейхью (Chewbacca), Себастьян Шоу (Anakin Skywalker), Иен МакДермид (The Emperor), Фрэнк Оз (Yoda, озвучка), Джеймс Эрл Джонс (Darth Vader, озвучка), Дэвид Праус (Darth Vader), Алек Гиннесс (Ben «Obi-Wan» Kenobi)-Описание:
В заключительном шестом эпизоде «Звездных войн» Дарт Вейдер создает вторую «Звезду Смерти». Он объединяет все силы зла, чтобы с помощью этого смертоносного оружия нанести последний сокрушительный удар по повстанцам и их союзникам.
Люк Скайуокер вместе с принцессой Лейей и верными дроидами R2D2 и C-3PO отправляется спасать своего друга Хана Соло, который попал в плен к отвратительному Джаббе Хатту - могущественному повелителю преступников.
Повстанцы высаживаются на планету Эндор, чтобы оттуда вместе с Люком и его отрядом предпринять последнюю атаку на Имперский флот, атаку, от которой зависит судьба Галактики. В этом эпизоде Люк Скайуокер и Дарт Вейдер встречаются в последний раз... ибо из поединка между отцом и сыном живым выйдет только один...-Рейтинг

imdb.com: 8.40 (564 144)
MPAA: PG - Рекомендуется присутствие родителей-Качество: BDRip-AVC 60fps
Формат: MKV
Видео: AVC, 1024x432 (2.35:1), 3540 kbps, 59,940 fps, 0,134 bpp
Аудио: русский / AC3 / 5.1 / 48 kHz / 640 kbps / 16 bit
Навигация по главам: есть- -MI
General
Unique ID : 199919478473181219186282431319244743741 (0x9667174C2797DEEDBA6652DBE78F243D)
Format : Matroska
Format version : Version 4 / Version 2
File size : 3.94 GiB
Duration : 2h 14mn
Overall bit rate : 4 185 Kbps
Movie name : Tiberiumsun69
Encoded date : UTC 2015-09-20 15:25:47
Writing application : mkvmerge v8.3.0 ('Over the Horizon') 64bit
Writing library : libebml v1.3.1 + libmatroska v1.4.2
Attachment : Yes
Video
ID : 1
Format : AVC
Format/Info : Advanced Video Codec
Format profile : High@L4.1
Format settings, CABAC : Yes
Format settings, ReFrames : 4 frames
Codec ID : V_MPEG4/ISO/AVC
Duration : 2h 14mn
Bit rate : 3 540 Kbps
Width : 1 024 pixels
Height : 432 pixels
Display aspect ratio : 2.35:1
Frame rate : 59.940 fps
Color space : YUV
Chroma subsampling : 4:2:0
Bit depth : 8 bits
Scan type : Progressive
Bits/(Pixel*Frame) : 0.134
Stream size : 3.26 GiB (83%)
Title : Tiberiumsun69
Writing library : x264 core 146 r2538 121396c
Encoding settings : cabac=1 / ref=3 / deblock=1:0:0 / analyse=0x3:0x113 / me=umh / subme=9 / psy=1 / psy_rd=1.00:0.10 / mixed_ref=1 / me_range=32 / chroma_me=1 / trellis=2 / 8x8dct=1 / cqm=0 / deadzone=21,11 / fast_pskip=0 / chroma_qp_offset=-3 / threads=12 / lookahead_threads=3 / sliced_threads=0 / nr=0 / decimate=1 / interlaced=0 / bluray_compat=0 / constrained_intra=0 / bframes=16 / b_pyramid=2 / b_adapt=2 / b_bias=0 / direct=3 / weightb=1 / open_gop=0 / weightp=2 / keyint=600 / keyint_min=59 / scenecut=40 / intra_refresh=0 / rc_lookahead=40 / rc=2pass / mbtree=0 / bitrate=3540 / ratetol=1.0 / qcomp=0.60 / qpmin=0 / qpmax=69 / qpstep=4 / cplxblur=20.0 / qblur=0.5 / vbv_maxrate=14000 / vbv_bufsize=14000 / nal_hrd=none / filler=0 / ip_ratio=1.40 / pb_ratio=1.30 / aq=1:1.00
Language : English
Default : Yes
Forced : No
Audio
ID : 2
Format : AC-3
Format/Info : Audio Coding 3
Mode extension : CM (complete main)
Codec ID : A_AC3
Duration : 2h 14mn
Bit rate mode : Constant
Bit rate : 640 Kbps
Channel(s) : 6 channels
Channel positions : Front: L C R, Side: L R, LFE
Sampling rate : 48.0 KHz
Bit depth : 16 bits
Compression mode : Lossy
Stream size : 617 MiB (15%)
Title : Дубляж
Language : Russian
Default : Yes
Forced : No
Text #1
ID : 3
Format : UTF-8
Codec ID : S_TEXT/UTF8
Codec ID/Info : UTF-8 Plain Text
Title : Форсированные
Language : Russian
Default : Yes
Forced : No
Text #2
ID : 4
Format : UTF-8
Codec ID : S_TEXT/UTF8
Codec ID/Info : UTF-8 Plain Text
Title : Полные
Language : Russian
Default : No
Forced : No
Text #3
ID : 5
Format : UTF-8
Codec ID : S_TEXT/UTF8
Codec ID/Info : UTF-8 Plain Text
Title : Полные
Language : English
Default : No
Forced : No
Menu
00:00:00.000 : en:Chapter 00
00:00:21.104 : en:Chapter 01
00:01:54.864 : en:Chapter 02
00:04:15.838 : en:Chapter 03
00:08:19.248 : en:Chapter 04
00:10:15.948 : en:Chapter 05
00:12:57.735 : en:Chapter 06
00:15:13.537 : en:Chapter 07
00:16:29.697 : en:Chapter 08
00:18:19.973 : en:Chapter 09
00:19:45.392 : en:Chapter 10
00:21:22.698 : en:Chapter 11
00:23:57.727 : en:Chapter 12
00:25:49.422 : en:Chapter 13
00:29:29.350 : en:Chapter 14
00:31:29.220 : en:Chapter 15
00:33:37.682 : en:Chapter 16
00:35:55.152 : en:Chapter 17
00:36:51.250 : en:Chapter 18
00:38:33.561 : en:Chapter 19
00:40:36.725 : en:Chapter 20
00:44:20.074 : en:Chapter 21
00:46:08.390 : en:Chapter 22
00:50:13.385 : en:Chapter 23
00:52:16.633 : en:Chapter 24
00:54:20.256 : en:Chapter 25
00:57:40.290 : en:Chapter 26
01:00:57.945 : en:Chapter 27
01:03:42.777 : en:Chapter 28
01:05:46.108 : en:Chapter 29
01:08:12.171 : en:Chapter 30
01:13:24.233 : en:Chapter 31
01:16:39.886 : en:Chapter 32
01:18:24.116 : en:Chapter 33
01:19:45.863 : en:Chapter 34
01:22:55.929 : en:Chapter 35
01:25:38.550 : en:Chapter 36
01:27:51.265 : en:Chapter 37
01:30:28.673 : en:Chapter 38
01:34:39.799 : en:Chapter 39
01:38:28.902 : en:Chapter 40
01:40:26.145 : en:Chapter 41
01:41:46.099 : en:Chapter 42
01:43:51.433 : en:Chapter 43
01:47:02.541 : en:Chapter 44
01:49:21.471 : en:Chapter 45
01:53:41.689 : en:Chapter 46
01:56:14.842 : en:Chapter 47
01:59:46.596 : en:Chapter 48
02:01:58.227 : en:Chapter 49

Скриншоты

Просьба к переливающим на другие сайты, в оформлении указывайте пожалуйста авторство группы
[Профиль] [ЛС]
Показать сообщения:    

Текущее время: Сегодня 06:01

Часовой пояс: GMT



Вы не можете начинать темы
Вы не можете отвечать на сообщения
Вы не можете редактировать свои сообщения
Вы не можете удалять свои сообщения
Вы не можете голосовать в опросах
Вы не можете прикреплять файлы к сообщениям
Вы не можете скачивать файлы