Звездная пыль / Stardust (Мэттью Вон / Matthew Vaughn) [2007, Великобритания, США, Исландия, фэнтези, мелодрама, приключения, семейный, BDRip] AVO (Дольский, Немахов)

 
Автор Сообщение

TorrentFilm ®

Пол:

Стаж: 2 года

Сообщений: 7741



Награды: Нет

Торрент-статистика

Создавать темы 10-Июн-2015 00:04

[Цитировать]

Звездная пыль / Stardust Страна: Великобритания, США, Исландия
Жанр: фэнтези, мелодрама, приключения, семейный
Год выпуска: 2007
Продолжительность: 02:07:41
Перевод 1: Авторский (одноголосый закадровый) Андрей Дольский
Перевод 2: Авторский (одноголосый закадровый) Юрий Немахов
Cубтитры: нет
Режиссер: Мэттью Вон / Matthew Vaughn
В ролях: Чарли Кокс, Клер Дэйнс, Мишель Пфайффер, Роберт Де Ниро, Марк Стронг, Джейсон Флеминг, Руперт Эверетт, Кейт Магован, Сиенна Миллер, Натаниель Паркер
Описание: Маленькая английская деревенька отделена древней стеной от сверхъестественной параллельной вселенной, где царят магия и волшебство. Молодой Тристан Торн опрометчиво обещает самой красивой девушке деревни, что принесёт ей слетевшую с неба звезду, упавшую по ту сторону стены.
На своём пути по следам древних легенд Тристан встретит всесильного короля и его заговорщика-сына, могущественную ведьму, капитана пиратского корабля и хитроумного торговца, а также найдёт свою истинную любовь, ключ к пониманию своей сущности и судьбы, о которой он мог только мечтать.

Качество видео: BDRip (источник: / Blu-Ray / 1080p)
Формат видео: AVI
Видео кодек: XviD
Аудио кодек: AC3
Видео: 720x304 (2.37:1), 23.976 fps, XviD build 50 ~1994 kbps avg, 0.38 bit/pixel
Аудио#1: 48 kHz, AC3 Dolby Digital, 3/2 (L,C,R,l,r) + LFE ch, ~448 kbps - Дольский
Аудио#2: 48 kHz, AC3 Dolby Digital, 3/2 (L,C,R,l,r) + LFE ch, ~448 kbps - Немахов - отдельно

Доп.инфо

за видеоряд спасибо HITMAN
за перевод Дольского спасибо пользователям форума hdtracker: Jiraya87, ultrajeka, WUSA, _MyxAmoP_, Tagansky, budulaj965, ZeRoNe, imp, kolibri2, hulahup, KpucTo161, Отон, TOMAN, Comandante
за перевод Немахова спасибо пользователям форума hdtracker: Jiraya87, ultrajeka, _MyxAmoP_ , Tagansky, WUSA, budulaj965, ZeRoNe, Luka69, Отон, Volshebnik, Loki

MediaInfo

Полное имя : Звездная пыль.avi
Формат : AVI
Формат/Информация : Audio Video Interleave
Профиль формата : OpenDML
Размер файла : 2,18 Гбайт
Продолжительность : 2 ч. 7 м.
Общий поток : 2449 Кбит/сек
Программа кодирования : VirtualDubMod 1.5.10.2 (build 2540/release)
Библиотека кодирования : VirtualDubMod build 2540/release
Видео
Идентификатор : 0
Формат : MPEG-4 Visual
Профиль формата : Advanced Simple@L5
Параметр BVOP формата : 1
Параметр QPel формата : Нет
Параметр GMC формата : Без точки перехода
Параметр матрицы формата : Default (MPEG)
Идентификатор кодека : XVID
Идентификатор кодека/Подсказка : XviD
Продолжительность : 2 ч. 7 м.
Битрейт : 1989 Кбит/сек
Ширина : 720 пикселей
Высота : 304 пикселя
Соотношение сторон : 2,35:1
Частота кадров : 23,976 кадра/сек
Цветовое пространство : YUV
Субдискретизация насыщенности : 4:2:0
Битовая глубина : 8 бит
Тип развёртки : Прогрессивная
Метод сжатия : С потерями
Бит/(Пиксели*Кадры) : 0.379
Размер потока : 1,77 Гбайт (81%)
Библиотека кодирования : XviD 1.2.1 (UTC 2008-12-04)
Аудио
Идентификатор : 1
Формат : AC-3
Формат/Информация : Audio Coding 3
Расширение режима : CM (complete main)
Параметр Endianness формата : Big
Идентификатор кодека : 2000
Продолжительность : 2 ч. 7 м.
Вид битрейта : Постоянный
Битрейт : 448 Кбит/сек
Каналы : 6 каналов
Расположение каналов : Front: L C R, Side: L R, LFE
Частота : 48,0 КГц
Битовая глубина : 16 бит
Метод сжатия : С потерями
Размер потока : 409 Мбайт (18%)
Выравнивание : Разделение по промежуткам
Продолжительность промежутка : 42 мс. (1,00 видеокадр)
Время предзагрузки промежутка : 500 мс.
Общее
Полное имя : Звездная пыль.Немахов.ac3
Формат : AC-3
Формат/Информация : Audio Coding 3
Размер файла : 409 Мбайт
Продолжительность : 2 ч. 7 м.
Режим общего битрейта : Постоянный
Общий поток : 448 Кбит/сек
Аудио
Формат : AC-3
Формат/Информация : Audio Coding 3
Расширение режима : CM (complete main)
Параметр Endianness формата : Big
Продолжительность : 2 ч. 7 м.
Вид битрейта : Постоянный
Битрейт : 448 Кбит/сек
Каналы : 6 каналов
Расположение каналов : Front: L C R, Side: L R, LFE
Частота : 48,0 КГц
Битовая глубина : 16 бит
Метод сжатия : С потерями
Размер потока : 409 Мбайт (100%)

Скриншоты

[Профиль] [ЛС]

Создавать темы 06-Авг-2015 22:29 (спустя 1 месяц 26 дней)

Топик был перенесен из форума Фильмы до 2014 года в форум Фильмы до 2012 года
sergej644
 
Показать сообщения:    

Текущее время: Сегодня 14:36

Часовой пояс: GMT



Вы не можете начинать темы
Вы не можете отвечать на сообщения
Вы не можете редактировать свои сообщения
Вы не можете удалять свои сообщения
Вы не можете голосовать в опросах
Вы не можете прикреплять файлы к сообщениям
Вы не можете скачивать файлы