Звездная карта / Maps to the Stars (2014) BDRip [720p]

 
Автор Сообщение

sergej644 ®

Пол:

Стаж: 4 года 11 месяцев

Сообщений: 6035

Откуда: Soviet Union



Награды: Нет

Торрент-статистика

Создавать темы 24-Окт-2014 14:25

[Цитировать]

-Звездная карта / Maps to the Stars (2014) BDRip-Год выпуска: 2014
Производство: Канада, США, Германия, Франция
Жанр: Драма
Режиссер: Дэвид Кроненберг
Продюсер: Саид Бен Саид, Мартин Кац, Мишель Меркт
Актеры: Джулианна Мур, Миа Васиковска, Джон Кьюсак, Эван Бёрд, Оливия Уильямс, Роберт Паттинсон, Кьяра Гласко, Сара Гадон, Доун Гринхалг, Джонатан Уоттон
Описание фильма:
Место действия — два голливудских дома. В одном живет стареющая актриса, которая надеется сыграть роль собственной давно погибшей матери — легенды черно-белого кино. Другой особняк — резиденция сверхуспешного психотерапевта, его жены и их сына — 13-летнего миллионера, наркомана и звезды. В оба дома проникает девушка из Флориды, которая подружилась в твиттере с Кэрри Фишер и надеется с ее помощью покорить Лос-Анджелес.
Перевод: Авторский (Визгунов)
Язык субтитров: Французский
Вид субтитров: Вшитые (отключаемые)

Дата мировой премьеры: 19 мая 2014
Дата российской премьеры: 11 декабря 2014
Продолжительность: 01:47:17
Качество видео: BDRip (720p)
Видеокодек: MPEG-4 AVC
Битрейт видео: ~5491 Кбит/с
Размер кадра: 1280x690
Аудио:
1. DTS , 6 ch, ~ 1510 Кбит/с - русский
2. DTS , 6 ch, ~ 1510 Кбит/с - английский

MediaInfo:

Общее
Уникальный идентификатор : 213536805471809136897932329454249534804 (0xA0A5B15A9993CB2BBA086B2A99916554)
Полное имя : C:\NNM\Звездная карта\Zvezdnaya karta 2014 BDRip 720p.mkv
Формат : Matroska
Версия формата : Version 2
Размер файла : 6,51 Гбайт
Продолжительность : 1 ч. 47 м.
Общий поток : 8683 Кбит/сек
Программа кодирования : mkvmerge v5.2.1 ('A Far Off Place') built on Jan 2 2012 23:21:10
Библиотека кодирования : libebml v1.2.3 + libmatroska v1.3.0
Видео
Идентификатор : 1
Формат : AVC
Формат/Информация : Advanced Video Codec
Профиль формата : [url=mailto:High@L4.1]High@L4.1[/url]
Параметр CABAC формата : Да
Параметр ReFrames формата : 9 кадров
Идентификатор кодека : V_MPEG4/ISO/AVC
Продолжительность : 1 ч. 47 м.
Битрейт : 5491 Кбит/сек
Ширина : 1280 пикселей
Высота : 690 пикселей
Соотношение сторон : 1,855
Частота кадров : 25,000 кадров/сек
Цветовое пространство : YUV
Субдискретизация насыщенности : 4:2:0
Битовая глубина : 8 бит
Тип развёртки : Прогрессивная
Бит/(Пиксели*Кадры) : 0.249
Размер потока : 4,11 Гбайт (63%)
Библиотека кодирования : x264 core 142 r2479kMod dd79a61
Настройки программы : cabac=1 / ref=9 / deblock=1:-3:-3 / analyse=0x3:0x133 / me=tesa / subme=10 / psy=1 / fade_compensate=0.00 / psy_rd=1.00:0.05 / mixed_ref=1 / me_range=24 / chroma_me=1 / trellis=2 / 8x8dct=1 / cqm=0 / deadzone=21,11 / fast_pskip=0 / chroma_qp_offset=-3 / threads=6 / lookahead_threads=1 / sliced_threads=0 / nr=0 / decimate=1 / interlaced=0 / bluray_compat=0 / constrained_intra=0 / fgo=0 / bframes=12 / b_pyramid=2 / b_adapt=2 / b_bias=0 / direct=3 / weightb=1 / open_gop=0 / weightp=2 / keyint=250 / keyint_min=25 / scenecut=40 / intra_refresh=0 / rc_lookahead=60 / rc=crf / mbtree=0 / crf=15.7500 / qcomp=0.70 / qpmin=0 / qpmax=69 / qpstep=4 / vbv_maxrate=62500 / vbv_bufsize=78125 / crf_max=0.0 / nal_hrd=none / filler=0 / ip_ratio=1.30 / pb_ratio=1.20 / aq=3:0.80
Язык : English
Default : Да
Forced : Нет
Коэффициенты матрицы : BT.709-5, BT.1361, IEC 61966-2-4 709, SMPTE RP177
Аудио #1
Идентификатор : 2
Формат : DTS
Формат/Информация : Digital Theater Systems
Идентификатор кодека : A_DTS
Продолжительность : 1 ч. 47 м.
Вид битрейта : Постоянный
Битрейт : 1510 Кбит/сек
Каналы : 6 каналов
Расположение каналов : Front: L C R, Side: L R, LFE
Частота : 48,0 КГц
Битовая глубина : 24 бит
Метод сжатия : С потерями
Размер потока : 1,13 Гбайт (17%)
Заголовок : DTS 5.1 @ 1536 kbps Vizgunov
Язык : Russian
Default : Да
Forced : Нет
Аудио #2
Идентификатор : 3
Формат : DTS
Формат/Информация : Digital Theater Systems
Идентификатор кодека : A_DTS
Продолжительность : 1 ч. 47 м.
Вид битрейта : Постоянный
Битрейт : 1510 Кбит/сек
Каналы : 6 каналов
Расположение каналов : Front: L C R, Side: L R, LFE
Частота : 48,0 КГц
Битовая глубина : 24 бит
Метод сжатия : С потерями
Размер потока : 1,13 Гбайт (17%)
Заголовок : DTS 5.1 @ 1536 kbps Original
Язык : English
Default : Нет
Forced : Нет
Текст
Идентификатор : 4
Формат : UTF-8
Идентификатор кодека : S_TEXT/UTF8
Идентификатор кодека/Информация : UTF-8 Plain Text
Язык : French
Default : Нет
Forced : Нет
Меню
00:00:00.000 : en:00:00:00.000
00:08:32.320 : en:00:08:32.320
00:20:37.800 : en:00:20:37.800
00:29:15.080 : en:00:29:15.080
00:40:17.520 : en:00:40:17.520
00:50:31.360 : en:00:50:31.360
00:59:57.000 : en:00:59:57.000
01:08:47.600 : en:01:08:47.600
01:19:54.640 : en:01:19:54.640
01:27:56.640 : en:01:27:56.640
01:35:10.680 : en:01:35:10.680
01:41:22.320 : en:01:41:22.320
Скриншоты:

Время раздачи: Круглосуточно до 10 скачавших
[Профиль] [ЛС]
Показать сообщения:    

Текущее время: Сегодня 04:57

Часовой пояс: GMT



Вы не можете начинать темы
Вы не можете отвечать на сообщения
Вы не можете редактировать свои сообщения
Вы не можете удалять свои сообщения
Вы не можете голосовать в опросах
Вы не можете прикреплять файлы к сообщениям
Вы не можете скачивать файлы