За чужие грехи (Сергей Борчуков) [2015, Россия, мелодрама, HDTV 1080i]

 
Автор Сообщение

TorrentFilm ®

Пол:

Стаж: 2 года

Сообщений: 7741



Награды: Нет

Торрент-статистика

Создавать темы 11-Мар-2016 00:08

[Цитировать]

За чужие грехи- -Страна: Россия
Жанр: мелодрама
Год выпуска: 2015
Производство: «Кинокомпания Русское, М.Продакшн»
Продолжительность: 01:31:14
Оригинальная аудиодорожка: русский
Cубтитры: нет-Режиссер: Сергей Борчуков-В ролях:
Светлана Тимофеева-Летуновская, Андрей Егоров (I), Ольга Чудакова, Даниил Мызников, Александр Орав, Полина Леонова, Дарья Белоусова, Ёла Санько, Сергей Беляев, Ксения Ильясова, Мария Говорова, Юлия Куварзина, Светлана Иозефий, Дана Назарова, Ксения Непотребная, Алексей Богачук, Алексей Матошин, Елена Грибова, Михаил Скачков, Степан Середа-Описание:
Шура — женщина 45 лет, привлекательная вдова. Она живёт вместе с 25-летним сыном, невесткой и внуком в одной квартире. Работает бухгалтером. Шура готова отдать всё до последнего сыну и внуку. Мягкая и отзывчивая, она помогает всем, чем и пользуется её невестка. Сын Шуры Игорь — подкаблучник. Он без памяти любит свою жену, которая ему изменяет, и готов даже предать мать ради спокойствия жены. Сын разменивает квартиру матери, и Шура оказывается в коммуналке на окраине города.
Шура уезжает с внуком отдыхать в деревню, где встречает свою любовь — Фёдора, доброго, честного и работящего мужчину. У него есть жена Нинка, хитрая и противная, которая превращает его жизнь в каждодневный ад.
Между Шурой и Фёдором вспыхивает любовь, но Шура уезжает обратно в город, так как не может встать между Фёдором и Нинкой.
Нинка предаёт мужа, крадёт у него чужие деньги и исчезает. Федор приезжает в город, где вновь встречает Шуру…-Возраст: 12+-Качество: HDTV (1080i)
Формат: TS
Видео кодек: AVC
Аудио кодек: MPEG Audio

Видео: AVC, 1920 х 1080 (16:9), 25,000 кадр/сек, 7 866 Кбит/сек, 0.152 bit/pixel
Аудио: MPEG Audio 2, 48000 Hz, 192 Kbps, 2 канала
-

MediaInfo

General
ID : 1 (0x1)
Complete name : D:\Раздачи\За чужие грехи HDTV (1080i)\За чужие грехи HDTV (1080i).ts
Format : MPEG-TS
File size : 5.40 GiB
Duration : 1h 31mn
Overall bit rate mode : Variable
Overall bit rate : 8 479 Kbps
Video
ID : 2911 (0xB5F)
Menu ID : 1009 (0x3F1)
Format : AVC
Format/Info : Advanced Video Codec
Format profile : High@L4
Format settings, CABAC : Yes
Format settings, ReFrames : 4 frames
Codec ID : 27
Duration : 1h 31mn
Bit rate : 7 866 Kbps
Width : 1 920 pixels
Height : 1 080 pixels
Display aspect ratio : 16:9
Frame rate : 25.000 fps
Color space : YUV
Chroma subsampling : 4:2:0
Bit depth : 8 bits
Scan type : MBAFF
Scan type, store method : Interleaved fields
Scan order : Top Field First
Bits/(Pixel*Frame) : 0.152
Stream size : 5.01 GiB (93%)
Audio
ID : 2912 (0xB60)
Menu ID : 1009 (0x3F1)
Format : MPEG Audio
Format version : Version 1
Format profile : Layer 2
Codec ID : 3
Duration : 1h 31mn
Bit rate mode : Constant
Bit rate : 192 Kbps
Channel(s) : 2 channels
Sampling rate : 48.0 KHz
Compression mode : Lossy
Stream size : 125 MiB (2%)
Language : Russian

Скриншоты


-Раздаю до первых 5-ти скачавших, на раздачи не возвращаюсь...-
[Профиль] [ЛС]
Кто просматривает тему:

Показать сообщения:    

Текущее время: Сегодня 22:41

Часовой пояс: GMT



Вы не можете начинать темы
Вы не можете отвечать на сообщения
Вы не можете редактировать свои сообщения
Вы не можете удалять свои сообщения
Вы не можете голосовать в опросах
Вы не можете прикреплять файлы к сообщениям
Вы не можете скачивать файлы