За чужие грехи (2015) SATRip

 
Автор Сообщение

достали все ®

Пол:

Стаж: 1 год 8 месяцев

Сообщений: 6591



Награды: 12 (Подробнее)

Mega Seeder 1 (Количество: 1) Mega Seeder 2 (Количество: 1) Mega Seeder 4 (Количество: 1)
Торрент-статистика

Создавать темы 16-Май-2015 11:44

[Цитировать]

-За чужие грехи (2015) SATRip- Производство: Россия, Кинокомпания Русское
Жанр: Мелодрама
Режиссер: Сергей Борчуков
Актеры: Светлана Тимофеева-Летуновская, Андрей Егоров, Ольга Чудакова, Ксения Ильясова, Даниил Мызников, Александр Орлов, Дарья Белоусова, Полина Леонова, Юлия Куварзина, Сергей Беляев, Мария Говорова
Описание фильма:
Шура - женщина 45 лет, привлекательная вдова. Она живет вместе с 25-летним сыном, невесткой и внуком в одной квартире, работает бухгалтером. Шура готова отдать все до последнего сыну и внуку. Мягкая и отзывчивая, она помогает всем, чем и пользуется ее невестка. Сын Шуры Игорь - подкаблучник. Он без памяти любит свою жену, которая ему изменяет, и готов даже предать мать ради спокойствия жены. Сын разменивает квартиру матери, и Шура оказывается в коммуналке на окраине города.
Дата Российской премьеры: 16 мая 2015
Продолжительность: 01:30:34
Качество видео: SATRip
Перевод: Не требуется (язык русский)
Субтитры: Отсутствуют
Видеокодек: XviD
Битрейт видео: ~1800 Кбит/с
Размер кадра: 720х400
Аудиокодек: MP3 2 ch
Битрейт аудио: 192 Кбит/с

MediaInfo:

Общее
Полное имя : C:\NNM\За чужие грехи\Za chuzhie grehi 2015 SATRip.avi
Формат : AVI
Формат/Информация : Audio Video Interleave
Размер файла : 1,27 Гбайт
Продолжительность : 1 ч. 30 м.
Общий поток : 2002 Кбит/сек
Программа кодирования : VirtualDubMod 1.5.10.3
Библиотека кодирования : VirtualDubMod build 2550/release
Видео
Идентификатор : 0
Формат : MPEG-4 Visual
Профиль формата : Advanced Simple@L5
Параметр BVOP формата : 2
Параметр QPel формата : Нет
Параметр GMC формата : Без точки перехода
Параметр матрицы формата : Default (H.263)
Идентификатор кодека : XVID
Идентификатор кодека/Подсказка : XviD
Продолжительность : 1 ч. 30 м.
Битрейт : 1800 Кбит/сек
Ширина : 720 пикселей
Высота : 400 пикселей
Соотношение сторон : 16:9
Частота кадров : 25,000 кадров/сек
Цветовое пространство : YUV
Субдискретизация насыщенности : 4:2:0
Битовая глубина : 8 бит
Тип развёртки : Прогрессивная
Метод сжатия : С потерями
Бит/(Пиксели*Кадры) : 0.250
Размер потока : 1,14 Гбайт (90%)
Библиотека кодирования : XviD 1.2.1 (UTC 2008-12-04)
Аудио
Идентификатор : 1
Формат : AC-3
Формат/Информация : Audio Coding 3
Расширение режима : CM (complete main)
Идентификатор кодека : 2000
Продолжительность : 1 ч. 30 м.
Вид битрейта : Постоянный
Битрейт : 192 Кбит/сек
Каналы : 2 канала
Расположение каналов : Front: L R
Частота : 48,0 КГц
Битовая глубина : 16 бит
Метод сжатия : С потерями
Размер потока : 124 Мбайт (10%)
Выравнивание : Разделение по промежуткам
Продолжительность промежутка : 40 мс. (1,00 видеокадр)
Время предзагрузки промежутка : 500 мс.
Скриншоты:
[Профиль] [ЛС]
Кто просматривает тему:

Показать сообщения:    

Текущее время: Сегодня 10:00

Часовой пояс: GMT



Вы не можете начинать темы
Вы не можете отвечать на сообщения
Вы не можете редактировать свои сообщения
Вы не можете удалять свои сообщения
Вы не можете голосовать в опросах
Вы не можете прикреплять файлы к сообщениям
Вы не можете скачивать файлы