За тридевять земель / Resan till Fjäderkungens Rike (2014) HDRip-AVC от New-Team | D | лицензия

 
Автор Сообщение

sergej644 ®

Пол:

Стаж: 4 года 11 месяцев

Сообщений: 6046

Откуда: Soviet Union



Награды: Нет

Торрент-статистика

Создавать темы 27-Авг-2014 17:32

[Цитировать]

--«Волшебство только начинается» -Страна: Дания, Швеция / Copenhagen Bombay, Film i Väst
Жанр: мультфильм, фэнтези
Год выпуска: 2014
Продолжительность: 01:18:25
Перевод: Профессиональный (дублированный)
Cубтитры: нет
Оригинальная аудиодорожка: шведский
Режиссер: Эсбен Тофт Якобсен / Esben Toft Jacobsen
В ролях: Эдвин Рюдинг, Тува Новотны, Густаф Хаммарстен, Леннарт Якель, Сиселла Кайл, Лейф Андре, Pelle Falk Krusbæk, Сёс Эгелинд, Ларс Бригманн, Флемминг Квист Мюллер...
Роли дублировали: Марина Гладкая, Андрей Лёвин, Станислав Концевич, Галина Чигинская, Алексей Макрецкий
Описание: В поисках своей мамы Йохан попадает в далекое Царство Короля Перьев, откуда нет дороги назад. От судьбы не уйдешь: теперь он должен сам позаботиться о спасении не только своей мамы, но и всего королевства. Но разве можно понимать все тонкости жизни и играть по ее правилам, когда ты еще так молод?

Качество: HDRip-AVC / DVD5 R5 от Premium FILM - Лицензия + Za.TriDevyat.Zemelb.2014.D.BDRip.720p.mkv
Формат: MKV
Видео: 1024x422 (2.40:1), MPEG-4 AVC 2209 Кбит/сек / 23.976 fps / Бит/(Пиксели*Кадры) : 0.213
Аудио: Dolby Digital Audio Russian 448 kbps 5.1 / 48 kHz
Дополнительно: Фильм разбит на главы, как на оригинальном DVD диске
Раздача от:

MediaInfo

Общее
Полное имя : Za.tridevyat.zemel.2014.HDRip-AVC_[New-Team]_by_avproh.mkv
Формат : Matroska
Версия формата : Version 4 / Version 2
Размер файла : 1,46 Гбайт
Продолжительность : 1 ч. 18 м.
Общий поток : 2656 Кбит/сек
Название фильма : Alvin and the Chipmunks: Chipwrecked (2011) - Release for HDCLUB
Дата кодирования : UTC 2014-08-27 12:09:10
Программа кодирования : mkvmerge v7.1.0 ('Good Love') 64bit built on Jul 27 2014 13:06:55
Библиотека кодирования : libebml v1.3.0 + libmatroska v1.4.1
_STATISTICS_WRITING_APP : mkvmerge v7.1.0 ('Good Love') 64bit built on Jul 27 2014 13:06:55
_STATISTICS_WRITING_DATE_UTC : 2014-08-27 12:09:10
_STATISTICS_TAGS : BPS DURATION NUMBER_OF_FRAMES NUMBER_OF_BYTES
DURATION : 01:18:28.928000000
NUMBER_OF_FRAMES : 147154
NUMBER_OF_BYTES : 263699968
Видео
Идентификатор : 1
Формат : AVC
Формат/Информация : Advanced Video Codec
Профиль формата : High@L4.1
Параметр CABAC формата : Да
Параметр ReFrames формата : 8 кадров
Идентификатор кодека : V_MPEG4/ISO/AVC
Продолжительность : 1 ч. 18 м.
Битрейт : 2209 Кбит/сек
Ширина : 1024 пикселя
Высота : 422 пикселя
Соотношение сторон : 2,40:1
Режим частоты кадров : Постоянный
Частота кадров : 23,976 кадра/сек
Цветовое пространство : YUV
Субдискретизация насыщенности : 4:2:0
Битовая глубина : 8 бит
Тип развёртки : Прогрессивная
Бит/(Пиксели*Кадры) : 0.213
Размер потока : 1,18 Гбайт (81%)
Библиотека кодирования : x264 core 130 r2273 b3065e6
Настройки программы : cabac=1 / ref=8 / deblock=1:-3:-2 / analyse=0x3:0x113 / me=umh / subme=10 / psy=1 / psy_rd=1.00:0.05 / mixed_ref=1 / me_range=32 / chroma_me=1 / trellis=2 / 8x8dct=1 / cqm=0 / deadzone=21,11 / fast_pskip=0 / chroma_qp_offset=-3 / threads=9 / lookahead_threads=1 / sliced_threads=0 / nr=0 / decimate=0 / interlaced=0 / bluray_compat=0 / constrained_intra=0 / bframes=8 / b_pyramid=2 / b_adapt=2 / b_bias=0 / direct=3 / weightb=1 / open_gop=0 / weightp=2 / keyint=240 / keyint_min=24 / scenecut=40 / intra_refresh=0 / rc_lookahead=40 / rc=2pass / mbtree=1 / bitrate=2209 / ratetol=1.0 / qcomp=0.60 / qpmin=0 / qpmax=69 / qpstep=4 / cplxblur=20.0 / qblur=0.5 / ip_ratio=1.40 / aq=1:1.00
Язык : Swedish
Default : Да
Forced : Нет
DURATION : 01:18:24.659000000
NUMBER_OF_FRAMES : 112799
NUMBER_OF_BYTES : 1298652362
_STATISTICS_WRITING_APP : mkvmerge v7.1.0 ('Good Love') 64bit built on Jul 27 2014 13:06:55
_STATISTICS_WRITING_DATE_UTC : 2014-08-27 12:09:10
_STATISTICS_TAGS : BPS DURATION NUMBER_OF_FRAMES NUMBER_OF_BYTES
Аудио
Идентификатор : 2
Формат : AC-3
Формат/Информация : Audio Coding 3
Расширение режима : CM (complete main)
Параметр Endianness формата : Big
Идентификатор кодека : A_AC3
Продолжительность : 1 ч. 18 м.
Вид битрейта : Постоянный
Битрейт : 448 Кбит/сек
Каналы : 6 каналов
Расположение каналов : Front: L C R, Side: L R, LFE
Частота : 48,0 КГц
Битовая глубина : 16 бит
Метод сжатия : С потерями
Размер потока : 251 Мбайт (17%)
Язык : Russian
Default : Да
Forced : Нет
Меню
00:00:00.000 : en:00:00:00.000
00:03:35.680 : en:00:03:35.680
00:08:08.800 : en:00:08:08.800
00:12:19.840 : en:00:12:19.840
00:16:19.440 : en:00:16:19.440
00:20:41.440 : en:00:20:41.440
00:25:21.760 : en:00:25:21.760
00:30:09.760 : en:00:30:09.760
00:34:00.160 : en:00:34:00.160
00:39:38.560 : en:00:39:38.560
00:45:40.000 : en:00:45:40.000
00:50:50.080 : en:00:50:50.080
00:55:37.120 : en:00:55:37.120
01:00:26.080 : en:01:00:26.080
01:06:08.400 : en:01:06:08.400
01:10:47.200 : en:01:10:47.200

Скриншоты:

[Профиль] [ЛС]
Кто просматривает тему:

Показать сообщения:    

Текущее время: Сегодня 13:01

Часовой пояс: GMT



Вы не можете начинать темы
Вы не можете отвечать на сообщения
Вы не можете редактировать свои сообщения
Вы не можете удалять свои сообщения
Вы не можете голосовать в опросах
Вы не можете прикреплять файлы к сообщениям
Вы не можете скачивать файлы