За стеной / Behind the Wall (Пол Шнайдер / Paul Schneider) [2008, США, Канада, ужасы, мистический триллер, DVB-AVC] MVO (Kino Polska)

 
Автор Сообщение

TorrentFilm ®

Пол:

Стаж: 1 год 11 месяцев

Сообщений: 7741



Награды: Нет

Торрент-статистика

Создавать темы 30-Авг-2015 00:10

[Цитировать]

За стеной
Behind the Wall- Страна: США, Канада
Жанр: мистический триллер, ужасы
Год выпуска: 2008
Продолжительность: 01:25:12Перевод: Профессиональный (многоголосый закадровый) по заказу Kino Polska на производственно-технической базе Студии "Акцент"
Cубтитры: нет
Режиссер: Пол Шнайдер / Paul Schneider
В ролях: Линди Бут / Lindy Booth (Katelyn Parks), Лоуренс Дейн / Lawrence Dane (Father Hendry), Джеймс Томас / James Thomas (Drew Cabot), Энди Джоунс / Andy Jones (Ray Sanders), Сюзи Поллард / Suzie Pollard (Monica)
Описание: Несколько поколений семьи Парксов были смотрителями маяка. Когда Кейтлин было 10 лет, она увидела, как ее мать вошла в маяк, а через несколько минут ее нашли избитой до смерти. В убийстве обвинили отца Кейтлин и поместили его в тюрьму, а затем и в психбольницу, где он скончался. Кейтлин была отдана к приемным родителям, а маяк закрыли... Теперь Кейтлин 20 лет. Она получает письмо от незнакомца, который назначает ей встречу у маяка...
Доп. информация: Filmbox IPTV

Качество видео: DVB-AVC
Формат видео: MKV
Видео: AVC (H.264), 720x576@1024x576 (16:9), 25 fps, ~1459 kbps avg, 0.141 bit/pixel
Аудио: MPEG Audio 2, 2 ch, 48 kHz, ~128.00 kbps avg

MediaInfo

ОбщееУникальный идентификатор : 215754304486172720605026898808305948149 (0xA250C47F13A0CC44914876C02F4915F5)Полное имя : F:\My Torrents 3\[apreder]Behind_the_Wall(2008)DVB.mkvФормат : MatroskaВерсия формата : Version 2Размер файла : 987 МбайтПродолжительность : 1 ч. 25 м.Общий поток : 1619 Кбит/секДата кодирования : UTC 2015-08-28 16:11:02Программа кодирования : mkvmerge v8.3.0 ('Over the Horizon') 64bitБиблиотека кодирования : libebml v1.3.1 + libmatroska v1.4.2Attachements : cover.jpg / cover_small.jpgTITLE : Behind the WallIMDB : tt1070886DATE_RELEASED : 2008-08-30LAW_RATING : 16+GENRE : Horror, ThrillerACTOR : Lindy Booth, Lawrence Dane, James ThomasDIRECTOR : Paul SchneiderKEYWORDS : torrentfilm.net
ВидеоИдентификатор : 1Формат : AVCФормат/Информация : Advanced Video CodecПрофиль формата : High@L3Параметр CABAC формата : ДаПараметр ReFrames формата : 3 кадраПараметр GOP формата : M=1, N=25Идентификатор кодека : V_MPEG4/ISO/AVCПродолжительность : 1 ч. 25 м.Битрейт : 1459 Кбит/секШирина : 720 пикселейВысота : 576 пикселейСоотношение сторон : 16:9Соотношение сторон в оригинале : 16:9Режим частоты кадров : ПостоянныйЧастота кадров : 25,000 кадров/секСтандарт вещания : PALЦветовое пространство : YUVСубдискретизация насыщенности : 4:2:0Битовая глубина : 8 битТип развёртки : ПрогрессивнаяБит/(Пиксели*Кадры) : 0.141Размер потока : 889 Мбайт (90%)Default : ДаForced : Нет
АудиоИдентификатор : 2Формат : MPEG AudioВерсия формата : Version 1Профиль формата : Layer 2Идентификатор кодека : A_MPEG/L2Идентификатор кодека/Подсказка : MP2Продолжительность : 1 ч. 25 м.Вид битрейта : ПостоянныйБитрейт : 128 Кбит/секКаналы : 2 каналаЧастота : 48,0 КГцМетод сжатия : С потерямиЗадержка видео : 4 мс.Размер потока : 78,0 Мбайт (8%)Язык : RussianDefault : ДаForced : Нет

Скриншот c названием фильма

Скриншоты


Резервные скриншоты


-[2'573]
[Профиль] [ЛС]

Создавать темы 12-Июн-2016 08:50 (спустя 9 месяцев 13 дней)

Топик был перенесен из форума Фильмы 2011 года в форум Фильмы 2006-2008 года
Russian Mafia
 
Кто просматривает тему:

Показать сообщения:    

Текущее время: Сегодня 18:01

Часовой пояс: GMT



Вы не можете начинать темы
Вы не можете отвечать на сообщения
Вы не можете редактировать свои сообщения
Вы не можете удалять свои сообщения
Вы не можете голосовать в опросах
Вы не можете прикреплять файлы к сообщениям
Вы не можете скачивать файлы