За сигаретами / Elle s en va (2013) BDRip [1080p]

 
Автор Сообщение

sergej644 ®

Пол:

Стаж: 4 года 11 месяцев

Сообщений: 6037

Откуда: Soviet Union



Награды: Нет

Торрент-статистика

Создавать темы 18-Авг-2014 21:43

[Цитировать]

-За сигаретами / Elle s en va (2013) BDRip- Год выпуска: 2013
Производство: Франция, Fidelite Films
Жанр: Драма, комедия
Режиссер: Эмманюэль Берко
Актеры: Катрин Денёв, Немо Шиффман, Жерар Гаруст, Камилль, Клоди Жансак, Поль Ами, Милен Демонжо, Хафсия Херци, Эвелин Леклерк, Валери Лагранж, Валентин Гийом, Пьер Тульгоат, Андрэа Покар, Мари Гомберт, Давина Гийевик, Кассандра Равене, Флора Леруа, Оливия Тавернье, Кристин Фурнетс Тозиэд, Катерина Машетт, Седрик Кистребер, Паскаль Ле Рюниго, Гуэна Лего, Анна Манак, Жаклин Гуйо, Николь Айрал, Валери Геслен, Доминик Ле Ферран, Давид Депрез, Фредерик Энофф, Филипп Монсель, Карл Дюбюрк, Кристин Николас, Серефен Нгакуту Бенинга, Флор Шамбонне
Описание фильма:
Что может огорчить женщину? Развалившийся роман? Проблемы с собственным рестораном на грани банкротства? От такого любой впадет в уныние. Но только не Бэтти. Первым делом нужно перекурить, решает она и отправляется за сигаретами в соседний бар. Так начинается ее головокружительная одиссея: за несколько дней она проедет в своем стареньком «мерседесе» половину Франции, чтобы понять, что эта дорога и есть её путь к счастью.
Перевод: Профессиональный многоголосый
Язык субтитров: Английский
Вид субтитров: Вшитые (отключаемые)

Продолжительность: 01:53:00
Качество видео: BDRip (1080p)
Видеокодек: MPEG-4 AVC
Битрейт видео: ~11919 Кбит/с
Размер кадра: 1920x1036
Аудио:
1. AC3, 2 ch, 192 Кбит/с - русский
2. DTS, 6 ch, 1510 Кбит/с - французский
Награды и номинации

MediaInfo:

Общее
Уникальный идентификатор : 193501450997447702980278930662438551771 (0x9193061CBA10757BB0346DD1182D40DB)
Полное имя : C:\NNM\За сигаретами\Za sigaretami 2013 BDRip 1080p.mkv
Формат : Matroska
Версия формата : Version 4 / Version 2
Размер файла : 10,8 Гбайт
Продолжительность : 1 ч. 53 м.
Общий поток : 13,6 Мбит/сек
Программа кодирования : mkvmerge v7.1.0 ('Good Love') 64bit built on Jul 27 2014 13:06:55
Библиотека кодирования : libebml v1.3.0 + libmatroska v1.4.1
DURATION : 01:47:34.965000000
NUMBER_OF_FRAMES : 1334
NUMBER_OF_BYTES : 37922
_STATISTICS_WRITING_APP : mkvmerge v7.1.0 ('Good Love') 64bit built on Jul 27 2014 13:06:55
_STATISTICS_WRITING_DATE_UTC : 2014-08-18 00:46:41
_STATISTICS_TAGS : BPS DURATION NUMBER_OF_FRAMES NUMBER_OF_BYTES
Attachment : Yes
Видео
Идентификатор : 1
Формат : AVC
Формат/Информация : Advanced Video Codec
Профиль формата : [url=mailto:High@L4.1]High@L4.1[/url]
Параметр CABAC формата : Да
Параметр ReFrames формата : 4 кадра
Идентификатор кодека : V_MPEG4/ISO/AVC
Продолжительность : 1 ч. 53 м.
Битрейт : 11,9 Мбит/сек
Ширина : 1920 пикселей
Высота : 1036 пикселей
Соотношение сторон : 1,853
Частота кадров : 23,976 кадра/сек
Цветовое пространство : YUV
Субдискретизация насыщенности : 4:2:0
Битовая глубина : 8 бит
Тип развёртки : Прогрессивная
Бит/(Пиксели*Кадры) : 0.250
Размер потока : 9,20 Гбайт (86%)
Заголовок : Za.sigaretami
Библиотека кодирования : x264 core 142 r2431 ac76440
Настройки программы : cabac=1 / ref=4 / deblock=1:-3:-3 / analyse=0x3:0x133 / me=umh / subme=11 / psy=1 / psy_rd=1.00:0.15 / mixed_ref=1 / me_range=32 / chroma_me=1 / trellis=2 / 8x8dct=1 / cqm=0 / deadzone=21,11 / fast_pskip=0 / chroma_qp_offset=-3 / threads=8 / lookahead_threads=2 / sliced_threads=0 / nr=0 / decimate=0 / interlaced=0 / bluray_compat=0 / constrained_intra=0 / bframes=10 / b_pyramid=2 / b_adapt=2 / b_bias=0 / direct=3 / weightb=1 / open_gop=0 / weightp=2 / keyint=240 / keyint_min=23 / scenecut=40 / intra_refresh=0 / rc_lookahead=60 / rc=2pass / mbtree=1 / bitrate=11919 / ratetol=1.0 / qcomp=0.70 / qpmin=0 / qpmax=69 / qpstep=4 / cplxblur=20.0 / qblur=0.5 / vbv_maxrate=50000 / vbv_bufsize=62500 / nal_hrd=none / filler=0 / ip_ratio=1.40 / aq=1:1.00
Язык : English
Default : Да
Forced : Да
DURATION : 01:53:00.774000000
NUMBER_OF_FRAMES : 162576
NUMBER_OF_BYTES : 10100695133
_STATISTICS_WRITING_APP : mkvmerge v7.1.0 ('Good Love') 64bit built on Jul 27 2014 13:06:55
_STATISTICS_WRITING_DATE_UTC : 2014-08-18 00:46:41
_STATISTICS_TAGS : BPS DURATION NUMBER_OF_FRAMES NUMBER_OF_BYTES
Аудио #1
Идентификатор : 2
Формат : AC-3
Формат/Информация : Audio Coding 3
Расширение режима : CM (complete main)
Идентификатор кодека : A_AC3
Продолжительность : 1 ч. 53 м.
Вид битрейта : Постоянный
Битрейт : 192 Кбит/сек
Каналы : 2 канала
Расположение каналов : Front: L R
Частота : 48,0 КГц
Битовая глубина : 16 бит
Метод сжатия : С потерями
Размер потока : 155 Мбайт (1%)
Заголовок : MVO
Язык : Russian
Default : Да
Forced : Да
DURATION : 01:53:00.768000000
NUMBER_OF_FRAMES : 211899
NUMBER_OF_BYTES : 162738432
_STATISTICS_WRITING_APP : mkvmerge v7.1.0 ('Good Love') 64bit built on Jul 27 2014 13:06:55
_STATISTICS_WRITING_DATE_UTC : 2014-08-18 00:46:41
_STATISTICS_TAGS : BPS DURATION NUMBER_OF_FRAMES NUMBER_OF_BYTES
Аудио #2
Идентификатор : 3
Формат : DTS
Формат/Информация : Digital Theater Systems
Идентификатор кодека : A_DTS
Продолжительность : 1 ч. 53 м.
Вид битрейта : Постоянный
Битрейт : 1510 Кбит/сек
Каналы : 6 каналов
Расположение каналов : Front: L C R, Side: L R, LFE
Частота : 48,0 КГц
Битовая глубина : 16 бит
Метод сжатия : С потерями
Размер потока : 1,19 Гбайт (11%)
Заголовок : Original
Язык : French
Default : Нет
Forced : Нет
DURATION : 01:53:00.779000000
NUMBER_OF_FRAMES : 635698
NUMBER_OF_BYTES : 1279024376
_STATISTICS_WRITING_APP : mkvmerge v7.1.0 ('Good Love') 64bit built on Jul 27 2014 13:06:55
_STATISTICS_WRITING_DATE_UTC : 2014-08-18 00:46:41
_STATISTICS_TAGS : BPS DURATION NUMBER_OF_FRAMES NUMBER_OF_BYTES
Текст
Идентификатор : 4
Формат : UTF-8
Идентификатор кодека : S_TEXT/UTF8
Идентификатор кодека/Информация : UTF-8 Plain Text
Заголовок : Full
Язык : English
Default : Нет
Forced : Нет
Меню
00:00:00.000 : en:Chapter 01
00:06:05.615 : en:Chapter 02
00:13:49.411 : en:Chapter 03
00:21:11.186 : en:Chapter 04
00:31:41.900 : en:Chapter 05
00:39:09.430 : en:Chapter 06
00:46:52.893 : en:Chapter 07
00:52:48.874 : en:Chapter 08
00:59:53.840 : en:Chapter 09
01:07:39.055 : en:Chapter 10
01:14:35.762 : en:Chapter 11
01:21:23.879 : en:Chapter 12
01:29:06.591 : en:Chapter 13
01:34:47.223 : en:Chapter 14
01:42:01.365 : en:Chapter 15
01:48:46.853 : en:Chapter 16
Скриншоты: Время раздачи: Круглосуточно до 10 скачавших
[Профиль] [ЛС]
Кто просматривает тему:

Показать сообщения:    

Текущее время: Сегодня 15:57

Часовой пояс: GMT



Вы не можете начинать темы
Вы не можете отвечать на сообщения
Вы не можете редактировать свои сообщения
Вы не можете удалять свои сообщения
Вы не можете голосовать в опросах
Вы не можете прикреплять файлы к сообщениям
Вы не можете скачивать файлы