За пределами / Существующая / Extant [S01] (2014) WEB-DLRip от Generalfilm | КПК | Amedia

 
Автор Сообщение

Белочка ®

Пол:

Стаж: 5 лет 1 месяц

Сообщений: 2089



Награды: 1 (Подробнее)

Girls (Количество: 1)
Торрент-статистика

Создавать темы 04-Ноя-2014 18:47

[Цитировать]

Информация о фильме
Название: За пределами / Существующая
Оригинальное название: Extant
Год выхода: 2014
Жанр: Фантастика, триллер, драма
Режиссер: Пэрис Барклай, Мэтт Эрл Бисли, Аллен Коултер
В ролях: Холли Берри, Хироюки Санада, Грэйс Гаммер, Пирс Гэнон, Майкл О`’Нилл, Камрин Менхейм, Горан Вишнич, Мори Стерлинг, Серджо Харфорд, Брэд Бейер, Чарли Бьюли, Энни Вершинг, Жанетта Арнетт, Энвер Гьокай, Джимми Жан-Луи, Шеннон Браун, Тесса Феррер
О фильме:
Молли Уотс только что вернулась домой из 13-месячной одиночной космической экспедиции. Все это время женщина-астронавт провела на космической станции совершенно одна, и от того совершенно немыслимой кажется ей известие о том, что она беременна. Как это могло произойти? Что теперь будет с семьей Молли — ее мужем Джоном и сыном-андроидом Итаном? И как это невероятное событие повлияет на ход истории всего человечества?

Список серий:

01. Возвращение (Reentry)
02. Вымерший (Extinct)
03. Жаль, что тебя здесь нет (Wish You Were Here)
04. Убежище (Shelter)
05. Что не так на Земле? (What on Earth Is Wrong?)
06. Кошмар (Nightmare)
07. В небе и на земле (More in Heaven and Earth)
08. Вторжение (Incursion)
09. Уход и кормление (Care and Feeding)
10. Колода карт (A Pack of Cards)
11. Новый мир (A New World)
12. Пока не было крови (Before the Blood)
13. Вознесение (Ascension)
Страна: США
Студия: Amblin Television, CBS Television Studios
Продолжительность: 13 х ~ 00:44:00
Перевод: Профессиональный (многоголосый, закадровый) [Amedia]
Файл
Формат: MP4
Качество: WEB-DLRip | КПК
Видео: MPEG-4 AVC (x264), 640x360, ~500 kbps, 23.976 fps
Аудио: AAC LC, 48.0 KHz, 2 ch, 128 Kbps
Субтитры: Нет
Семпл

Скриншоты

MI

Complete name : E:KinoZa. Predelami.AVC.WEB-DLRip.KPK.GeneralfilmZa. Predelami.S01.2014.AVC.WEB-DLRip.KPK.GeneralfilmZa. Predelami.s01e03.2014.AVC.WEB-DLRip.KPK.Generalfilm.mp4
Format : MPEG-4
Format profile : Base Media
Codec ID : isom
File size : 199 MiB
Duration : 44mn 11s
Overall bit rate mode : Variable
Overall bit rate : 630 Kbps
Encoded date : UTC 2014-10-24 15:20:56
Tagged date : UTC 2014-10-24 15:20:56
Video
ID : 1
Format : AVC
Format/Info : Advanced Video Codec
Format profile : Baseline@L4.1
Format settings, CABAC : No
Format settings, ReFrames : 6 frames
Codec ID : avc1
Codec ID/Info : Advanced Video Coding
Duration : 44mn 11s
Bit rate : 500 Kbps
Maximum bit rate : 3 344 Kbps
Width : 640 pixels
Height : 360 pixels
Display aspect ratio : 16:9
Frame rate mode : Constant
Frame rate : 23.976 fps
Color space : YUV
Chroma subsampling : 4:2:0
Bit depth : 8 bits
Scan type : Progressive
Bits/(Pixel*Frame) : 0.091
Stream size : 158 MiB (79%)
Writing library : x264 core 125 r2200 999b753
Encoding settings : cabac=0 / ref=6 / deblock=1:-1:-1 / analyse=0x1:0x111 / me=umh / subme=7 / psy=1 / psy_rd=1.00:0.00 / mixed_ref=0 / me_range=16 / chroma_me=1 / trellis=1 / 8x8dct=0 / cqm=0 / deadzone=21,11 / fast_pskip=0 / chroma_qp_offset=-2 / threads=12 / lookahead_threads=2 / sliced_threads=0 / nr=0 / decimate=1 / interlaced=0 / bluray_compat=0 / constrained_intra=0 / bframes=0 / weightp=0 / keyint=250 / keyint_min=23 / scenecut=40 / intra_refresh=0 / rc_lookahead=60 / rc=2pass / mbtree=1 / bitrate=500 / ratetol=1.0 / qcomp=0.60 / qpmin=0 / qpmax=69 / qpstep=4 / cplxblur=20.0 / qblur=0.5 / ip_ratio=1.40 / aq=1:1.00
Encoded date : UTC 2014-10-24 15:20:56
Tagged date : UTC 2014-10-24 15:21:00
Audio
ID : 2
Format : AAC
Format/Info : Advanced Audio Codec
Format profile : LC
Codec ID : 40
Duration : 44mn 11s
Bit rate mode : Variable
Bit rate : 128 Kbps
Maximum bit rate : 155 Kbps
Channel count : 2 channels
Channel positions : Front: L R
Sampling rate : 48.0 KHz
Compression mode : Lossy
Stream size : 40.3 MiB (20%)
Encoded date : UTC 2014-10-24 15:20:59
Tagged date : UTC 2014-10-24 15:21:00
Релиз от:
[Профиль] [ЛС]
Кто просматривает тему:

Показать сообщения:    

Текущее время: Сегодня 16:56

Часовой пояс: GMT



Вы не можете начинать темы
Вы не можете отвечать на сообщения
Вы не можете редактировать свои сообщения
Вы не можете удалять свои сообщения
Вы не можете голосовать в опросах
Вы не можете прикреплять файлы к сообщениям
Вы не можете скачивать файлы