За отдельными столиками / Separate Tables (1958) BDRip 1080p by msltel | P, P2

 
Автор Сообщение

sergej644 ®

Пол:

Стаж: 4 года 11 месяцев

Сообщений: 6035

Откуда: Soviet Union



Награды: Нет

Торрент-статистика

Создавать темы 07-Мар-2015 22:35

[Цитировать]

Год выпуска: 1958
Страна: США
Жанр: драма, мелодрама
Продолжительность: 01:39:49
Перевод: профессиональный многоголосый, профессиональный двухголосый
Субтитры: английские
Режиссёр: Делберт Манн
В ролях: Дебора Керр, Рита Хэйворт, Дэвид Найвен, Уэнди Хиллер, Бёрт Ланкастер, Глэдис Купер, Кэтлин Несбит, Феликс Эйлмер, Род Тейлор, Одри Далтон
Описание: В ресторане маленького отеля столики рассчитаны только на одну персону. Заправляет отелем Мисс Пэт Купер - дама, старающаяся создать комфортные условия для гостей. Её постояльцы своеобразные люди. Их объединяет одно — одиночество. Жизнь отеля идёт своим чередом, пока в гостинице не появляется стареющая светская львица Энн Шэнклэнд... Драма по одноимённой пьесе Теренса Реттигена.

Качество: BDRip 1080p
Формат: MKV
Видео кодек: H.264
Аудио кодек: AC3, DTS
Видео: 14 Mбит/с, 1788x1080, 23.976 кадра/с, 0.302 bpp
Аудио 1: русский, AC3, 192 kbps, 2 ch, 48 kHz [профессиональный многоголосый, канал "Домашний"]
Аудио 2: русский, AC3, 192 kbps, 2 ch, 48 kHz [профессиональный двухголосый, HTB+]
Аудио 3: английский, DTS, 1509 kbps, 2 ch, 48 kHz [оригинал
Имеются неименованные главы/чаптеры.

Награды

Оскар, 1959 год
Победитель (2):
Лучшая мужская роль (Дэвид Нивен)
Лучшая женская роль второго плана (Уэнди Хиллер)
Номинации (5):
Лучший фильм
Лучшая женская роль (Дебора Керр)
Лучший адаптированный сценарий
Лучшая работа оператора (ч/б фильмы)
Лучший саундтрек для драматических/комедийных картин
Золотой глобус, 1959 год
Победитель (1):
Лучшая мужская роль (драма) (Дэвид Нивен)
Номинации (4):
Лучшая женская роль (драма) (Дебора Керр)
Лучший фильм (драма)
Лучший режиссер (Делберт Манн)
Лучшая женская роль второго плана (Уэнди Хиллер)

Кванты и MediaInfo

frame I:851 Avg QP:20.86 size:185388
frame P:22330 Avg QP:21.89 size:113493
frame B:120411 Avg QP:23.71 size: 66578
Общее
Уникальный идентификатор : 230335627274628714763295665405634236930 (0xAD490736FBF53FAD952B54C1887F5202)
Полное имя : D:VideoZa otdelnymi stolikami.1958.BDRip.1080p.mkv
Формат : Matroska
Версия формата : Version 4 / Version 2
Размер файла : 11,3 Гбайт
Продолжительность : 1 ч. 39 м.
Общий поток : 16,2 Мбит/сек
Дата кодирования : UTC 2015-03-07 03:38:24
Программа кодирования : mkvmerge v7.7.0 ('Six Voices') 64bit built on Feb 28 2015 23:39:33
Библиотека кодирования : libebml v1.3.1 + libmatroska v1.4.2
_STATISTICS_WRITING_APP : mkvmerge v7.7.0 ('Six Voices') 64bit built on Feb 28 2015 23:39:33
_STATISTICS_WRITING_DATE_UTC : 2015-03-07 03:38:24
_STATISTICS_TAGS : BPS DURATION NUMBER_OF_FRAMES NUMBER_OF_BYTES
DURATION : 01:39:49.003000000
NUMBER_OF_FRAMES : 561469
NUMBER_OF_BYTES : 1129675692
Видео
Идентификатор : 1
Формат : AVC
Формат/Информация : Advanced Video Codec
Профиль формата : High@L4.1
Параметр CABAC формата : Да
Параметр ReFrames формата : 4 кадра
Идентификатор кодека : V_MPEG4/ISO/AVC
Продолжительность : 1 ч. 39 м.
Битрейт : 14,0 Мбит/сек
Ширина : 1788 пикселей
Высота : 1080 пикселей
Соотношение сторон : 1,656
Режим частоты кадров : Постоянный
Частота кадров : 23,976 кадра/сек
Цветовое пространство : YUV
Субдискретизация насыщенности : 4:2:0
Битовая глубина : 8 бит
Тип развёртки : Прогрессивная
Бит/(Пиксели*Кадры) : 0.302
Размер потока : 9,75 Гбайт (86%)
Заголовок : BDRip -- STarankov
Библиотека кодирования : x264 core 142 r2431 ac76440
Настройки программы : cabac=1 / ref=4 / deblock=1:-2:-2 / analyse=0x3:0x113 / me=umh / subme=9 / psy=1 / psy_rd=1.00:0.15 / mixed_ref=1 / me_range=32 / chroma_me=1 / trellis=2 / 8x8dct=1 / cqm=0 / deadzone=21,11 / fast_pskip=1 / chroma_qp_offset=-3 / threads=6 / lookahead_threads=1 / sliced_threads=0 / nr=0 / decimate=1 / interlaced=0 / bluray_compat=0 / constrained_intra=0 / bframes=8 / b_pyramid=2 / b_adapt=2 / b_bias=0 / direct=3 / weightb=1 / open_gop=0 / weightp=2 / keyint=230 / keyint_min=23 / scenecut=40 / intra_refresh=0 / rc_lookahead=40 / rc=crf / mbtree=0 / crf=20.0 / qcomp=0.60 / qpmin=0 / qpmax=69 / qpstep=4 / vbv_maxrate=40000 / vbv_bufsize=50000 / crf_max=0.0 / nal_hrd=none / filler=0 / ip_ratio=1.40 / pb_ratio=1.30 / aq=1:1.00
Язык : English
Default : Да
Forced : Нет
DURATION : 01:39:48.983000000
NUMBER_OF_FRAMES : 143592
NUMBER_OF_BYTES : 10708837821
_STATISTICS_WRITING_APP : mkvmerge v7.7.0 ('Six Voices') 64bit built on Feb 28 2015 23:39:33
_STATISTICS_WRITING_DATE_UTC : 2015-03-07 03:38:24
_STATISTICS_TAGS : BPS DURATION NUMBER_OF_FRAMES NUMBER_OF_BYTES
Аудио #1
Идентификатор : 2
Формат : AC-3
Формат/Информация : Audio Coding 3
Расширение режима : CM (complete main)
Параметр Endianness формата : Big
Идентификатор кодека : A_AC3
Продолжительность : 1 ч. 39 м.
Вид битрейта : Постоянный
Битрейт : 192 Кбит/сек
Каналы : 2 канала
Расположение каналов : Front: L R
Частота : 48,0 КГц
Битовая глубина : 16 бит
Метод сжатия : С потерями
Размер потока : 137 Мбайт (1%)
Заголовок : MVO (канал "Домашний")
Язык : Russian
Default : Да
Forced : Нет
Аудио #2
Идентификатор : 3
Формат : AC-3
Формат/Информация : Audio Coding 3
Расширение режима : CM (complete main)
Параметр Endianness формата : Big
Идентификатор кодека : A_AC3
Продолжительность : 1 ч. 39 м.
Вид битрейта : Постоянный
Битрейт : 192 Кбит/сек
Каналы : 2 канала
Расположение каналов : Front: L R
Частота : 48,0 КГц
Битовая глубина : 16 бит
Метод сжатия : С потерями
Размер потока : 137 Мбайт (1%)
Заголовок : DVO (HTB+)
Язык : Russian
Default : Нет
Forced : Нет
Аудио #3
Идентификатор : 4
Формат : DTS
Формат/Информация : Digital Theater Systems
Режим : 16
Параметр Endianness формата : Big
Идентификатор кодека : A_DTS
Продолжительность : 1 ч. 39 м.
Вид битрейта : Постоянный
Битрейт : 1509 Кбит/сек
Каналы : 2 канала
Расположение каналов : Front: L R
Частота : 48,0 КГц
Битовая глубина : 16 бит
Метод сжатия : С потерями
Размер потока : 1,05 Гбайт (9%)
Заголовок : Original
Язык : English
Default : Нет
Forced : Нет
Текст
Идентификатор : 5
Формат : UTF-8
Идентификатор кодека : S_TEXT/UTF8
Идентификатор кодека/Информация : UTF-8 Plain Text
Заголовок : английские
Язык : English
Default : Нет
Forced : Нет
Меню
00:00:00.000 : :Chapter 01
00:09:26.606 : :Chapter 02
00:16:32.657 : :Chapter 03
00:28:54.857 : :Chapter 04
00:42:18.284 : :Chapter 05
01:00:01.472 : :Chapter 06
01:07:12.235 : :Chapter 07
01:29:35.536 : :Chapter 08
01:39:47.773 : :Chapter 09

Скриншоты

[Профиль] [ЛС]
Кто просматривает тему:

Показать сообщения:    

Текущее время: Сегодня 05:02

Часовой пояс: GMT



Вы не можете начинать темы
Вы не можете отвечать на сообщения
Вы не можете редактировать свои сообщения
Вы не можете удалять свои сообщения
Вы не можете голосовать в опросах
Вы не можете прикреплять файлы к сообщениям
Вы не можете скачивать файлы