За Лисом / Охота на лиса / Caccia alla volpe / After the Fox (1966) BDRip 720p | P2

 
Автор Сообщение

Russian Mafia ®

Пол:

Стаж: 1 год 8 месяцев

Сообщений: 4252



Награды: 10 (Подробнее)

Mega Seeder 3 (Количество: 1) Mega Seeder 5 (Количество: 1) Mega Seeder 1 (Количество: 1)
Торрент-статистика

Создавать темы 08-Авг-2016 09:21

[Цитировать]

За Лисом / Охота на лисаCaccia alla volpe / After the Fox«Watch your girl, guard your gold, hold your jewels ...the fox is loose!»- Страна: Италия, Великобритания
Жанр: комедия, криминал
Год выпуска: 1966
Продолжительность: 01:43:18
Перевод: Профессиональный (двухголосый, закадровый)-Режиссер: Витторио Де Сика / Vittorio De Sica-В ролях: Питер Селлерс, Виктор Мэтьюр, Бритт Экланд, Мартин Болсам, Аким Тамирофф, Паоло Стоппа, Тино Буаццелли, Мак Ронай, Лидия Браззи, Ландо Будзанка-Описание: Забавная история о хитроумном уголовнике (Селлерс), который устраивает съемки фильма для того, чтобы провернуть крупную аферу. Виктор Матьюар играет роль угасшей американской кинозвезды и в немалой роли содействует комедийному эффекту фильма.-Семпл-Качество: BDRip
Контейнер: MKV
Видео: AVC, 1280x534 (2.35:1), 9422 Kbps, 23,976 fps, 0,575 bpp
Аудио №1: русский / AC3 / 2.0 / 48 kHz / 192 kbps / DVO ( HTB+ )
Аудио №2: английский / AC3 / 2.0 / 48 kHz / 448 Kbps
Навигация по главам: есть-

Media Info

**************************************************************************
x264 [info]: frame I:995 Avg QP:18.71 size:114733
x264 [info]: frame P:28889 Avg QP:19.87 size: 72523
x264 [info]: frame B:118700 Avg QP:21.76 size: 44204
**************************************************************************
Формат : Matroska
Версия формата : Version 2
Размер файла : 7,41 Гбайт
Продолжительность : 1 ч. 43 м.
Общий поток : 10,3 Мбит/сек
Название фильма : = Охота на лиса / Caccia alla volpe / After the Fox (1966) BDRip 720p by SC Kosmos =
Дата кодирования : UTC 2016-08-04 13:59:24
Программа кодирования : mkvmerge v5.8.0 ('No Sleep / Pillow') built on Sep 2 2012 15:37:04
Библиотека кодирования : libebml v1.2.3 + libmatroska v1.3.0
Attachment : Yes
Видео
Идентификатор : 1
Формат : AVC
Формат/Информация : Advanced Video Codec
Профиль формата : High@L4.1
Параметр CABAC формата : Да
Параметр ReFrames формата : 12 кадров
Идентификатор кодека : V_MPEG4/ISO/AVC
Продолжительность : 1 ч. 43 м.
Битрейт : 9422 Кбит/сек
Ширина : 1280 пикселей
Высота : 534 пикселя
Соотношение сторон : 2,40:1
Режим частоты кадров : Постоянный
Частота кадров : 23,976 кадра/сек
Цветовое пространство : YUV
Субдискретизация насыщенности : 4:2:0
Битовая глубина : 8 бит
Тип развёртки : Прогрессивная
Бит/(Пиксели*Кадры) : 0.575
Размер потока : 6,80 Гбайт (92%)
Заголовок : Охота на лиса / Caccia alla volpe / After the Fox (1966) BDRip 720p by SC Kosmos
Библиотека кодирования : x264 core 146 r2538 121396c
Настройки программы : cabac=1 / ref=12 / deblock=1:-3:-3 / analyse=0x3:0x113 / me=umh / subme=11 / psy=1 / psy_rd=1.00:0.00 / mixed_ref=1 / me_range=32 / chroma_me=1 / trellis=2 / 8x8dct=1 / cqm=0 / deadzone=21,11 / fast_pskip=0 / chroma_qp_offset=-2 / threads=12 / lookahead_threads=3 / sliced_threads=0 / nr=0 / decimate=1 / interlaced=0 / bluray_compat=0 / constrained_intra=0 / bframes=10 / b_pyramid=2 / b_adapt=2 / b_bias=0 / direct=3 / weightb=1 / open_gop=0 / weightp=2 / keyint=240 / keyint_min=23 / scenecut=40 / intra_refresh=0 / rc_lookahead=50 / rc=crf / mbtree=0 / crf=17.0 / qcomp=0.60 / qpmin=0 / qpmax=69 / qpstep=4 / vbv_maxrate=62500 / vbv_bufsize=78125 / crf_max=0.0 / nal_hrd=none / filler=0 / ip_ratio=1.40 / pb_ratio=1.30 / aq=1:1.00
Язык : English
Default : Да
Forced : Нет
Основные цвета : BT.709
Характеристики трансфера : BT.709
Коэффициенты матрицы : BT.709
Аудио #1
Идентификатор : 2
Формат : AC-3
Формат/Информация : Audio Coding 3
Расширение режима : CM (complete main)
Параметр Endianness формата : Big
Идентификатор кодека : A_AC3
Продолжительность : 1 ч. 43 м.
Вид битрейта : Постоянный
Битрейт : 192 Кбит/сек
Каналы : 2 канала
Расположение каналов : Front: L R
Частота : 48,0 КГц
Битовая глубина : 16 бит
Метод сжатия : С потерями
Размер потока : 142 Мбайт (2%)
Заголовок : DVO ( HTB+ )
Язык : Russian
Default : Да
Forced : Нет
Аудио #2
Идентификатор : 3
Формат : AC-3
Формат/Информация : Audio Coding 3
Расширение режима : CM (complete main)
Параметр Endianness формата : Big
Идентификатор кодека : A_AC3
Продолжительность : 1 ч. 43 м.
Вид битрейта : Постоянный
Битрейт : 448 Кбит/сек
Каналы : 2 канала
Расположение каналов : Front: L R
Частота : 48,0 КГц
Битовая глубина : 16 бит
Метод сжатия : С потерями
Размер потока : 331 Мбайт (4%)
Язык : English
Default : Нет
Forced : Нет
Меню
00:00:00.000 : en:00:00:00.000
00:10:54.279 : en:00:10:54.279
00:20:01.117 : en:00:20:01.117
00:30:38.128 : en:00:30:38.128
00:42:24.584 : en:00:42:24.584
01:00:23.453 : en:01:00:23.453
01:17:43.158 : en:01:17:43.158
01:33:28.686 : en:01:33:28.686
-

Скриншоты


[Профиль] [ЛС]
Кто просматривает тему:

Показать сообщения:    

Текущее время: Сегодня 00:42

Часовой пояс: GMT



Вы не можете начинать темы
Вы не можете отвечать на сообщения
Вы не можете редактировать свои сообщения
Вы не можете удалять свои сообщения
Вы не можете голосовать в опросах
Вы не можете прикреплять файлы к сообщениям
Вы не можете скачивать файлы