За двумя зайцами (Виктор Иванов) [1961, СССР, комедия, HDTV 1080i]

 
Автор Сообщение

TorrentFilm ®

Пол:

Стаж: 2 года

Сообщений: 7741



Награды: Нет

Торрент-статистика

Создавать темы 08-Дек-2015 00:10

[Цитировать]

За двумя зайцами
Страна: СССР
Студия: "К/с им. А. Довженко"
Жанр: комедия
Год выпуска: 1961
Продолжительность: 01:11:57
Режиссёр: Виктор Иванов
В ролях: Олег Борисов, Маргарита Криницына, Николай Яковченко, А. Кушниренко, Нонна Копержинская, Наталья Наум, Анатолий Юрченко, Константин Ершов, Таисия Литвиненко, Ольга Викланд, Нина Антонова.
Описание: Жил-был молодой бездельник по фамилии Голохвастый. Он держал в русском городке собственную цирюльню, пребывающую в плачевном состоянии, но большую часть времени проводил в кутежах и карточных играх. Проигравшись по крупному, Голохвастый решил поправить дела женитьбой …
Доп. информация: По одноименной пьесе С. Старицкого.

Семпл: https://yadi.sk/i/PivPSPSlktiXN
Качество: HDTV
Формат: TS
Видео: H264, 1920x1080 (16:9), 25 fps, 13800 kbps
Аудио 1: AC3, 6 сh, 48 kHz, 384 kbps
Аудио 2: MPEG Audiо, 2 сh, 48 kHz, 192 kbps

MediaInfo

G:\За двумя зайцами. (1961)_DVB by SLuMeP.ts
General #1
ID : 1 (0x1)
Complete name : G:\За двумя зайцами. (1961)_DVB by SLuMeP.ts
Format : MPEG-TS
File size : 7.58 GiB
Duration : 1h 11mn
Overall bit rate mode : Variable
Overall bit rate : 15.1 Mbps
Video #305
ID : 305 (0x131)
Menu ID : 20105 (0x4E89)
Format : AVC
Format/Info : Advanced Video Codec
Format profile : Main@L4.0
Format settings, CABAC : Yes
Format settings, ReFrames : 4 frames
Codec ID : 27
Duration : 1h 11mn
Bit rate : 13.8 Mbps
Width : 1 920 pixels
Height : 1 080 pixels
Display aspect ratio : 16:9
Frame rate : 25.000 fps
Standard : Component
Color space : YUV
Chroma subsampling : 4:2:0
Bit depth : 8 bits
Scan type : Interlaced
Scan order : Top Field First
Bits/(Pixel*Frame) : 0.265
Stream size : 6.91 GiB (91%)
Color primaries : BT.709
Transfer characteristics : BT.709
Matrix coefficients : BT.709
Audio #405
ID : 405 (0x195)
Menu ID : 20105 (0x4E89)
Format : AC-3
Format/Info : Audio Coding 3
Mode extension : CM (complete main)
Format settings, Endianness : Big
Codec ID : 6
Duration : 1h 11mn
Bit rate mode : Constant
Bit rate : 384 Kbps
Channel(s) : 6 channels
Channel positions : Front: L C R, Side: L R, LFE
Sampling rate : 48.0 KHz
Bit depth : 16 bits
Compression mode : Lossy
Stream size : 198 MiB (3%)
Language : Russian
Audio #406
ID : 406 (0x196)
Menu ID : 20105 (0x4E89)
Format : MPEG Audio
Format version : Version 1
Format profile : Layer 2
Codec ID : 3
Duration : 1h 11mn
Bit rate mode : Constant
Bit rate : 192 Kbps
Channel(s) : 2 channels
Sampling rate : 48.0 KHz
Compression mode : Lossy
Stream size : 98.8 MiB (1%)
Language : Russian

Скриншоты


[Профиль] [ЛС]
Кто просматривает тему:

Показать сообщения:    

Текущее время: Сегодня 10:00

Часовой пояс: GMT



Вы не можете начинать темы
Вы не можете отвечать на сообщения
Вы не можете редактировать свои сообщения
Вы не можете удалять свои сообщения
Вы не можете голосовать в опросах
Вы не можете прикреплять файлы к сообщениям
Вы не можете скачивать файлы