За голубыми небесами / Himlen är oskyldigt blå (Ханнес Холм / Hannes Holm) [2010, Швеция, драма, HDRip] VO (В. Кошкин) + Sub Rus + Original Swe

 
Автор Сообщение

TorrentFilm ®

Пол:

Стаж: 2 года

Сообщений: 7741



Награды: Нет

Торрент-статистика

Создавать темы 13-Апр-2015 00:02

[Цитировать]

За голубыми небесами / Himlen är oskyldigt blå
Страна: Швеция
Жанр: драма
Год выпуска: 2010
Продолжительность: 01:47:25
Перевод: Одноголосый закадровый В. Кошкин
Cубтитры: русские
Оригинальная аудиодорожка: шведский (отдельным файлом)
Режиссер: Ханнес Холм / Hannes Holm
В ролях: Билл Скарсгард, Питер Далле, Юзефина Юнгман, Аманда Оомс, Бьёрн Чьелльман, Адам Пэлссон, Расмус Троедссон, Анника Олссон, Питер Энгман, Густав Лунд
Описание: Мартин сбегает от отца-алкоголика, ищет работу на лето и находит её — работу, которую он никогда не забудет. На дворе 1975 год. Элитный яхт-клуб, идиллические красоты Стокгольмского архипелага. Мартин встречает свою первую любовь, и над ним берёт шефство старый плейбой Жосто. В результате Мартин оказывается в самом центре одного из крупнейших скандалов в криминальной истории Швеции...
Сэмпл: http://multi-up.com/1040769

Рип от AndreSweet. Моя благодарность!
Качество видео: HDRip
Формат видео: AVI
Видео: DivX, 720х384, 1747 кбит/с, 25 fps, 0,26 b/px
Аудио: AC3, 192 кбит/с, 2 ch, 48 КГц - русский
Аудио 2: AC3, 448 кбит/с, 6 ch, 48 КГц - шведский (отдельным файлом)
Формат субтитров: softsub (SRT)
Доп. информация о субтитрах: внешние

MediaInfo

Общее
Полное имя : D:\Himlen.Ar.Oskyldigt.Bla_2010\Himlen.Ar.Oskyldigt.Bla_2010.avi
Формат : AVI
Формат/Информация : Audio Video Interleave
Размер файла : 1,46 Гбайт
Продолжительность : 1 ч. 47 м.
Общий поток : 1949 Кбит/сек
Режиссёр : Rip by AndreSweet
Программа кодирования : VirtualDubModRus 1.5.10.2 (build 2542/release)
Библиотека кодирования : VirtualDubMod build 2542/release
Видео
Идентификатор : 0
Формат : MPEG-4 Visual
Профиль формата : Advanced Simple@L5
Параметр BVOP формата : 1
Параметр QPel формата : Нет
Параметр GMC формата : Без точки перехода
Параметр матрицы формата : Default (MPEG)
Идентификатор кодека : DX50
Идентификатор кодека/Подсказка : DivX 5
Продолжительность : 1 ч. 47 м.
Битрейт : 1747 Кбит/сек
Ширина : 720 пикселей
Высота : 384 пикселя
Соотношение сторон : 1,85:1
Частота кадров : 25,000 кадров/сек
Цветовое пространство : YUV
Субдискретизация насыщенности : 4:2:0
Битовая глубина : 8 бит
Тип развёртки : Прогрессивная
Метод сжатия : С потерями
Бит/(Пиксели*Кадры) : 0.253
Размер потока : 1,31 Гбайт (90%)
Библиотека кодирования : XviD 1.2.1 (UTC 2008-12-04)
Аудио
Идентификатор : 1
Формат : AC-3
Формат/Информация : Audio Coding 3
Расширение режима : CM (complete main)
Параметр Endianness формата : Big
Идентификатор кодека : 2000
Продолжительность : 1 ч. 47 м.
Вид битрейта : Постоянный
Битрейт : 192 Кбит/сек
Каналы : 2 канала
Расположение каналов : Front: L R
Частота : 48,0 КГц
Битовая глубина : 16 бит
Метод сжатия : С потерями
Задержка видео : 10 с.
Размер потока : 147 Мбайт (10%)
Выравнивание : Разделение по промежуткам
Продолжительность промежутка : 40 мс. (1,00 видеокадр)
Время предзагрузки промежутка : 500 мс.

Скриншот c названием фильма

[Профиль] [ЛС]

Создавать темы 06-Авг-2015 22:37 (спустя 3 месяца 23 дня)

Топик был перенесен из форума Фильмы до 2014 года в форум Фильмы до 2012 года
sergej644
 

Создавать темы 12-Июн-2016 07:54 (спустя 1 год 1 месяц)

Топик был перенесен из форума Фильмы 2011 года в форум Фильмы 2010 года
Russian Mafia
 
Кто просматривает тему:

Показать сообщения:    

Текущее время: Сегодня 18:14

Часовой пояс: GMT



Вы не можете начинать темы
Вы не можете отвечать на сообщения
Вы не можете редактировать свои сообщения
Вы не можете удалять свои сообщения
Вы не можете голосовать в опросах
Вы не можете прикреплять файлы к сообщениям
Вы не можете скачивать файлы