Заявка на убийство / Salinuiroe (2015) НDRip | L2

 
Автор Сообщение

достали все ®

Пол:

Стаж: 1 год 8 месяцев

Сообщений: 6600



Награды: 12 (Подробнее)

Top Releaser 3 (Количество: 1) За внесенный вклад в развитие сайта (Количество: 1) Mega Releaser 2 (Количество: 1)
Торрент-статистика

Создавать темы 24-Май-2016 09:33

[Цитировать]

Ветеран / Сделка на убийство / Murder Request / Salinuiroe
Страна: Южная Корея
Год выпуска: 2015
Жанр: триллер, драма, криминал
Продолжительность: 01:43:03
Режиссер: Сон Ён-хо
Автор сценария: Сон Ён-хо
В ролях: Ким Сан-гён, Ким Сон-гюн, Пак Сон-ун, Чо Джэ-юн, Ким И-сон, Ки Джу-бон, Юн Сын-а
Описание: Маньяк убил сестру полицейского, его поймали, но тело женщины так и не нашли. Безутешный муж убитой хочет отомстить во что бы то ни стало, замыкается в себе и перестает общаться с шурином-полицейским. Проходит время, и бывшие родственники встречаются при странных обстоятельствах...

Перевод: Любительский (двухголосый, закадровый) | den904 & DeadSno
Субтитры: нет-Качество: НDRip
Формат: АVI
Видео кодек: XviD
Аудио кодек: МР3
Видео: 720x304 (2.35:1), 23.976 fps, XviD ~1 704 kbps avg, 0.325 bit/pixel
Аудио: 48.0 kHz, MPEG Layer 3, 2 ch, ~192.00 kbps avg
Дата премьеры (мир): 12 марта 2015ВНИМАНИЕ! Присутствует
ненормативная лексика

Media Info

General
Полное имя : Сделка об убийстве.avi
Формат : AVI
Формат/Информация : Audio Video Interleave
Профиль формата : OpenDML
Размер файла : 1,38 Гбайт
Продолжительность : 1 ч. 43 м.
Общий поток : 1911 Кбит/сек
Программа кодирования : Lavf56.36.100
Видео
Идентификатор : 1
Формат : MPEG-4 Visual
Профиль формата : Simple@L1
Параметр BVOP формата : Нет
Параметр QPel формата : Нет
Параметр GMC формата : Без точки перехода
Параметр матрицы формата : Default (H.263)
Идентификатор кодека : FMP4
Продолжительность : 1 ч. 43 м.
Битрейт : 1704 Кбит/сек
Ширина : 720 пикселей
Высота : 304 пикселя
Соотношение сторон : 2,35:1
Частота кадров : 23,976 кадра/сек
Цветовое пространство : YUV
Субдискретизация насыщенности : 4:2:0
Битовая глубина : 8 бит
Тип развёртки : Прогрессивная
Метод сжатия : С потерями
Бит/(Пиксели*Кадры) : 0.325
Размер потока : 1,23 Гбайт (89%)
Библиотека кодирования : Lavc56.41.100
Аудио
Идентификатор : 0
Формат : MPEG Audio
Версия формата : Version 1
Профиль формата : Layer 3
Режим : Joint stereo
Расширение режима : MS Stereo
Идентификатор кодека : 55
Идентификатор кодека/Подсказка : MP3
Продолжительность : 1 ч. 43 м.
Вид битрейта : Постоянный
Битрейт : 192 Кбит/сек
Каналы : 2 канала
Частота : 48,0 КГц
Метод сжатия : С потерями
Размер потока : 142 Мбайт (10%)
Выравнивание : Соединение по промежуткам
Продолжительность промежутка : 42 мс. (1,00 видеокадр)

Скриншоты

[Профиль] [ЛС]
Показать сообщения:    

Текущее время: Сегодня 07:14

Часовой пояс: GMT



Вы не можете начинать темы
Вы не можете отвечать на сообщения
Вы не можете редактировать свои сообщения
Вы не можете удалять свои сообщения
Вы не можете голосовать в опросах
Вы не можете прикреплять файлы к сообщениям
Вы не можете скачивать файлы