Защитник / Concussion (2015) BDRip 720p | Лицензия

 
Автор Сообщение

достали все ®

Пол:

Стаж: 1 год 8 месяцев

Сообщений: 6571



Награды: 12 (Подробнее)

Mega Releaser 3 (Количество: 1) За внесенный вклад в развитие сайта (Количество: 1) Mega Releaser 1 (Количество: 1)
Торрент-статистика

Создавать темы 08-Июл-2016 03:08

[Цитировать]

Информация о фильме
Название: Защитник
Оригинальное название: Concussion
Год выхода: 2015
Жанр: драма, биография, спорт
Режиссер: Питер Ландесман
В ролях: Уилл Смит, Алек Болдуин, Альберт Брукс, Гугу Эмбата-Ро, Дэвид Морс, Арлисс Ховард, Майк О’Мэлли, Эдди Марсан, Хилл Харпер, Адевале Акинойе-Агбаже
О фильме:
Америка потрясена чередой неожиданных и необъяснимых смертей знаменитых спортсменов. Разгадать загадку предстоит талантливому молодому нейрохирургу, но, как оказалось, не все готовы услышать жестокую правду...

Страна: Великобритания, Австралия, США
Студия: The Cantillon Company, LStar Capital, Scott Free Productions
Продолжительность: 02:02:49
Перевод: Профессиональный (дублированный) Blu-ray EUR
Релиз:
Файл
Формат: Matroska
Видео: 1280x536 at 23.976 fps, x264@L4.1, ~3636 kbps avg
Аудио#1: Russian: 48 kHz, AC3, 3/2 (L,C,R,l,r) + LFE ch, ~640 kbps avg |Дубляж, Blu-ray EUR|
Аудио#2: English: 48 kHz, DTS, 3/2 (L,C,R,l,r) + LFE ch, ~1509 kbps avg
Aудио#3: English: 48 kHz, AC3, 2/0 (L,R) ch, ~192 kbps avg |Commentary with Director Peter Landesman|
Субтитры: Russian (Forced, iTunes), Russian (iTunes), English (iTunes), English, English (SDH), English (Commentary)
***Сохранены оригинальные главы как на Blu-ray.
***Видеоряд - DON!

MI

Общее
Уникальный идентификатор : 226257920423936552781724280754218919085 (0xAA37B0BEB46E076190303AB7E5F2E4AD)
Полное имя : Concussion.2015.720p.BluRay.Rus.2xEng.HDCLUB.mkv
Формат : Matroska
Версия формата : Version 2
Размер файла : 5,22 Гбайт
Продолжительность : 2 ч. 2 м.
Общий поток : 6085 Кбит/сек
Название фильма : Concussion (2015) - Release for HDCLUB
Дата кодирования : UTC 2016-07-07 21:37:57
Программа кодирования : mkvmerge v3.4.0 ('Rapunzel') built on May 15 2010 09:38:20
Библиотека кодирования : libebml v0.8.0 + libmatroska v0.9.0
Видео
Идентификатор : 1
Формат : AVC
Формат/Информация : Advanced Video Codec
Профиль формата : High@L4.1
Параметр CABAC формата : Да
Параметр ReFrames формата : 12 кадров
Идентификатор кодека : V_MPEG4/ISO/AVC
Продолжительность : 2 ч. 2 м.
Битрейт : 3623 Кбит/сек
Ширина : 1280 пикселей
Высота : 536 пикселей
Соотношение сторон : 2,40:1
Режим частоты кадров : Постоянный
Частота кадров : 23,976 кадра/сек
Цветовое пространство : YUV
Субдискретизация насыщенности : 4:2:0
Битовая глубина : 8 бит
Тип развёртки : Прогрессивная
Бит/(Пиксели*Кадры) : 0.220
Размер потока : 3,11 Гбайт (60%)
Заголовок : Concussion (2015) - Release for HDCLUB
Библиотека кодирования : x264 core 146 r0+2586 e393126 t_mod_Custom [8-bit@all X86_64]
Настройки программы : cabac=1 / ref=12 / deblock=1:-3:-3 / analyse=0x3:0x133 / me=umh / subme=10 / psy=1 / fade_compensate=0.00 / psy_rd=1.00:0.00 / mixed_ref=1 / me_range=24 / chroma_me=1 / trellis=2 / 8x8dct=1 / cqm=0 / deadzone=21,11 / fast_pskip=0 / chroma_qp_offset=-2 / threads=12 / lookahead_threads=3 / sliced_threads=0 / nr=0 / decimate=0 / interlaced=0 / bluray_compat=0 / constrained_intra=0 / fgo=0 / bframes=10 / b_pyramid=2 / b_adapt=2 / b_bias=0 / direct=3 / weightb=1 / open_gop=0 / weightp=2 / keyint=250 / keyint_min=23 / scenecut=40 / intra_refresh=0 / rc_lookahead=60 / rc=crf / mbtree=0 / crf=16.6000 / qcomp=0.65 / qpmin=0:0:0 / qpmax=69:69:69 / qpstep=4 / vbv_maxrate=62500 / vbv_bufsize=78125 / crf_max=0.0 / nal_hrd=none / filler=0 / ip_ratio=1.30 / pb_ratio=1.20 / aq=3:0.75 / aq-sensitivity=10.00 / aq-factor=1.00:1.00:1.00 / aq2=0 / aq3=0
Язык : English
Default : Да
Forced : Нет
Цветовой диапазон : Limited
Коэффициенты матрицы : BT.709
Аудио #1
Идентификатор : 2
Формат : AC-3
Формат/Информация : Audio Coding 3
Расширение режима : CM (complete main)
Параметр Endianness формата : Big
Идентификатор кодека : A_AC3
Продолжительность : 2 ч. 2 м.
Вид битрейта : Постоянный
Битрейт : 640 Кбит/сек
Каналы : 6 каналов
Расположение каналов : Front: L C R, Side: L R, LFE
Частота : 48,0 КГц
Метод сжатия : С потерями
Размер потока : 562 Мбайт (11%)
Заголовок : AC3 5.1 @ 640 kbps - DUB, Blu-ray CEE
Язык : Russian
Default : Да
Forced : Нет
Аудио #2
Идентификатор : 3
Формат : DTS
Формат/Информация : Digital Theater Systems
Режим : 16
Параметр Endianness формата : Big
Идентификатор кодека : A_DTS
Продолжительность : 2 ч. 2 м.
Вид битрейта : Постоянный
Битрейт : 1509 Кбит/сек
Каналы : 6 каналов
Расположение каналов : Front: L C R, Side: L R, LFE
Частота : 48,0 КГц
Битовая глубина : 24 бит
Метод сжатия : С потерями
Задержка видео : 11 мс.
Размер потока : 1,29 Гбайт (25%)
Заголовок : DTS 5.1 @ 1536 kbps
Язык : English
Default : Нет
Forced : Нет
Аудио #3
Идентификатор : 4
Формат : AC-3
Формат/Информация : Audio Coding 3
Расширение режима : CM (complete main)
Параметр Endianness формата : Big
Идентификатор кодека : A_AC3
Продолжительность : 2 ч. 2 м.
Вид битрейта : Постоянный
Битрейт : 192 Кбит/сек
Каналы : 2 канала
Расположение каналов : Front: L R
Частота : 48,0 КГц
Метод сжатия : С потерями
Размер потока : 169 Мбайт (3%)
Заголовок : AC3 2.0 @ 192 kbps - Commentary with Director Peter Landesman
Язык : English
Default : Нет
Forced : Нет
Текст #1
Идентификатор : 5
Формат : UTF-8
Идентификатор кодека : S_TEXT/UTF8
Идентификатор кодека/Информация : UTF-8 Plain Text
Заголовок : Forced, iTunes
Язык : Russian
Default : Да
Forced : Нет
Текст #2
Идентификатор : 6
Формат : UTF-8
Идентификатор кодека : S_TEXT/UTF8
Идентификатор кодека/Информация : UTF-8 Plain Text
Заголовок : iTunes
Язык : Russian
Default : Нет
Forced : Нет
Текст #3
Идентификатор : 7
Формат : UTF-8
Идентификатор кодека : S_TEXT/UTF8
Идентификатор кодека/Информация : UTF-8 Plain Text
Заголовок : iTunes
Язык : Ukrainian
Default : Нет
Forced : Нет
Текст #4
Идентификатор : 8
Формат : UTF-8
Идентификатор кодека : S_TEXT/UTF8
Идентификатор кодека/Информация : UTF-8 Plain Text
Заголовок : iTunes
Язык : English
Default : Нет
Forced : Нет
Текст #5
Идентификатор : 9
Формат : UTF-8
Идентификатор кодека : S_TEXT/UTF8
Идентификатор кодека/Информация : UTF-8 Plain Text
Язык : English
Default : Нет
Forced : Нет
Текст #6
Идентификатор : 10
Формат : UTF-8
Идентификатор кодека : S_TEXT/UTF8
Идентификатор кодека/Информация : UTF-8 Plain Text
Заголовок : SDH
Язык : English
Default : Нет
Forced : Нет
Текст #7
Идентификатор : 11
Формат : UTF-8
Идентификатор кодека : S_TEXT/UTF8
Идентификатор кодека/Информация : UTF-8 Plain Text
Заголовок : Commentary
Язык : English
Default : Нет
Forced : Нет
Меню
00:00:00.000 : en:00:00:00.000
00:07:26.696 : en:00:07:26.696
00:14:41.631 : en:00:14:41.631
00:21:48.098 : en:00:21:48.098
00:29:36.566 : en:00:29:36.566
00:37:42.927 : en:00:37:42.927
00:43:44.539 : en:00:43:44.539
00:51:30.713 : en:00:51:30.713
00:59:35.447 : en:00:59:35.447
01:06:58.264 : en:01:06:58.264
01:13:07.508 : en:01:13:07.508
01:22:18.308 : en:01:22:18.308
01:30:34.721 : en:01:30:34.721
01:38:15.098 : en:01:38:15.098
01:46:46.942 : en:01:46:46.942
01:53:34.808 : en:01:53:34.808

Скриншоты

[Профиль] [ЛС]
Кто просматривает тему:

Форум Тема Автор Размер
Антивирусы [Авторская раздача] Защита флешек от вирусов [04.09.2014] sergej644 7 KB
Программы [Утилиты] Reptilicus.net Защита телефона v.2.7 + клиент [Android 2.2+, RUS/ENG] TorrentFilm 3 MB
Научная и техническая литература Александр Мясников - Инфекции. Как защитить себя и своего ребенка (2016) PDF, FB2 достали все 6 MB
Научная и техническая литература Андрей Барбакадзе - Защитная книга водителя (2016) FB2, RTF достали все 13 MB
Фильмы (HD DVD, Blu-ray и BDRemux) Банда защитников / Vigilante Force (Джордж Эрмитаж / George Armitage) [1976, США, боевик, драма, криминал, приключения, BDRemux 1080p] DVO (НТВ+) + Sub Eng + Original Eng Russian Mafia 16.76 GB
Фильмы (HD Rips | 720p, 1080p) Банда защитников / Vigilante Force (Джордж Эрмитаж / George Armitage) [1976, США, боевик, драма, криминал, приключения, BDRip 720p] DVO (НТВ+) + Sub Eng + Original Eng Russian Mafia 6.21 GB
Фильмы 2011 года Банда защитников / Vigilante Force (Джордж Эрмитаж) [1976 г., боевик, триллер, драма, криминал, приключения, HDRip] [DVO (НТВ+)] Bathory 1.46 GB
Разное Безопасность в сети - Методы взлома и защиты (2015) PCRec sergej644 1021 MB
Показать сообщения:    

Текущее время: Сегодня 22:33

Часовой пояс: GMT



Вы не можете начинать темы
Вы не можете отвечать на сообщения
Вы не можете редактировать свои сообщения
Вы не можете удалять свои сообщения
Вы не можете голосовать в опросах
Вы не можете прикреплять файлы к сообщениям
Вы не можете скачивать файлы