Защитник / Concussion (2015) BDRip 1080p | iTunes

 
Автор Сообщение

Russian Mafia ®

Пол:

Стаж: 1 год 8 месяцев

Сообщений: 4247



Награды: 10 (Подробнее)

Mega Seeder 3 (Количество: 1) Top Releaser 3 (Количество: 1) Mega Seeder 1 (Количество: 1)
Торрент-статистика

Создавать темы 30-Мар-2016 15:24

[Цитировать]

Производство: Великобритания, Австралия, США / Cantillon Company, The, LStar Capital, Scott Free Productions
Жанр: драма, биография, спорт
Режиссер: Питер Ландесман
Продюсер: Элизабет Кантильон, Ридли Скотт, Ларри Шуман
Актеры: Уилл Смит, Алек Болдуин, Альберт Брукс, Гугу Эмбата-Ро, Дэвид Морс, Арлисс Ховард, Майк О’Мэлли, Эдди Марсан, Хилл Харпер, Адевале Акиннуойе-Агбадже, Стивен Мойер, Ричард Т. Джонс, Пол Райзер, Люк Уилсон, Сара Линдсей, Мэттью Уиллиг, Битси Таллок, Кевин Джиггеттс, Гэри Граббс, Рэнди Ковиц
Описание:
Америка потрясена чередой неожиданных и необъяснимых смертей знаменитых спортсменов. Разгадать загадку предстоит талантливому молодому нейрохирургу, но, как оказалось, не все готовы услышать жестокую правду…

Возраст: 16+ (зрителям, достигшим 16 лет)
Рейтинг MPAA: PG-13 (детям до 13 лет просмотр нежелателен)
Дата мировой премьеры: 10 ноября 2015
Релиз от: bluebird
Продолжительность: 02:02:49
Качество: BDRip 1080p
Перевод: Дублированный (iTunes)
Вид субтитров: Вшитые, отключаемые
Язык субтитров: Русский, Английский
Видео: AVC/H.264, 1920x804, (16:9), 12.6 Mbps, 23,976 fps
Аудио: AC3, 6 ch, 384 kbps - Русский
Аудио: DTS, 6 ch, 1509 kbps - Английский

MediaInfo:

Формат : Matroska
Версия формата : Version 2
Размер файла : 12,7 Гбайт
Продолжительность : 2 ч. 2 м.
Общий поток : 14,8 Мбит/сек
Название фильма : Concussion.2015.x264.BDRip.1080p.BLUEBIRD
Дата кодирования : UTC 2016-03-29 09:06:10
Программа кодирования : mkvmerge v7.9.0 ('Birds') 64bit
Библиотека кодирования : libebml v1.3.1 + libmatroska v1.4.2
Видео
Идентификатор : 1
Формат : AVC
Формат/Информация : Advanced Video Codec
Профиль формата : High@L4.1
Параметр CABAC формата : Да
Параметр ReFrames формата : 5 кадров
Идентификатор кодека : V_MPEG4/ISO/AVC
Продолжительность : 2 ч. 2 м.
Битрейт : 12,6 Мбит/сек
Ширина : 1920 пикселей
Высота : 804 пикселя
Соотношение сторон : 2,40:1
Режим частоты кадров : Постоянный
Частота кадров : 23,976 (24000/1001) кадра/сек
Цветовое пространство : YUV
Субдискретизация насыщенности : 4:2:0
Битовая глубина : 8 бит
Тип развёртки : Прогрессивная
Бит/(Пиксели*Кадры) : 0.340
Размер потока : 10,8 Гбайт (85%)
Заголовок : Concussion.2015.x264.BDRip.1080p.BLUEBIRD
Библиотека кодирования : x264 core 146 r2538 121396c
Настройки программы : cabac=1 / ref=5 / deblock=1:-3:-3 / analyse=0x3:0x133 / me=umh / subme=11 / psy=1 / psy_rd=1.00:0.00 / mixed_ref=1 / me_range=32 / chroma_me=1 / trellis=2 / 8x8dct=1 / cqm=0 / deadzone=21,11 / fast_pskip=0 / chroma_qp_offset=-2 / threads=48 / lookahead_threads=6 / sliced_threads=0 / nr=0 / decimate=0 / interlaced=0 / bluray_compat=0 / constrained_intra=0 / bframes=10 / b_pyramid=2 / b_adapt=2 / b_bias=0 / direct=3 / weightb=1 / open_gop=0 / weightp=2 / keyint=240 / keyint_min=23 / scenecut=40 / intra_refresh=0 / rc_lookahead=150 / rc=crf / mbtree=0 / crf=15.5 / qcomp=0.60 / qpmin=0 / qpmax=69 / qpstep=4 / vbv_maxrate=62500 / vbv_bufsize=78125 / crf_max=0.0 / nal_hrd=none / filler=0 / ip_ratio=1.40 / pb_ratio=1.30 / aq=1:0.80
Язык : English
Default : Да
Forced : Нет
Statistics Tags Issue : mkvmerge v8.9.0 ('Father Daughter') 64bit 2016-03-12 04:01:20 / mkvmerge v7.9.0 ('Birds') 64bit 2016-03-29 09:06:10
FromStats_BitRate : 12887801
FromStats_Duration : 02:02:49.362000000
FromStats_FrameCount : 176688
FromStats_StreamSize : 11871859586
Аудио #1
Идентификатор : 2
Формат : AC-3
Формат/Информация : Audio Coding 3
Расширение режима : CM (complete main)
Параметр Endianness формата : Big
Идентификатор кодека : A_AC3
Продолжительность : 2 ч. 2 м.
Вид битрейта : Постоянный
Битрейт : 384 Кбит/сек
Каналы : 6 каналов
Расположение каналов : Front: L C R, Side: L R, LFE
Частота : 48,0 КГц
Частота кадров : 31,250 кадров/сек (1536 spf)
Метод сжатия : С потерями
Размер потока : 337 Мбайт (3%)
Заголовок : Дублированный (iTunes)
Язык : Russian
Default : Да
Forced : Нет
Аудио #2
Идентификатор : 3
Формат : DTS
Формат/Информация : Digital Theater Systems
Режим : 16
Параметр Endianness формата : Big
Идентификатор кодека : A_DTS
Продолжительность : 2 ч. 2 м.
Вид битрейта : Постоянный
Битрейт : 1509 Кбит/сек
Каналы : 6 каналов
Расположение каналов : Front: L C R, Side: L R, LFE
Частота : 48,0 КГц
Частота кадров : 93,750 кадра/сек (512 spf)
Битовая глубина : 24 бит
Метод сжатия : С потерями
Размер потока : 1,29 Гбайт (10%)
Язык : English
Default : Нет
Forced : Нет
Statistics Tags Issue : mkvmerge v8.9.0 ('Father Daughter') 64bit 2016-03-12 04:01:20 / mkvmerge v7.9.0 ('Birds') 64bit 2016-03-29 09:06:10
FromStats_BitRate : 1508999
FromStats_Duration : 02:02:49.366000000
FromStats_FrameCount : 690878
FromStats_StreamSize : 1390046536
Текст #1
Идентификатор : 4
Формат : UTF-8
Идентификатор кодека : S_TEXT/UTF8
Идентификатор кодека/Информация : UTF-8 Plain Text
Заголовок : forced
Язык : Russian
Default : Нет
Forced : Нет
Текст #2
Идентификатор : 5
Формат : UTF-8
Идентификатор кодека : S_TEXT/UTF8
Идентификатор кодека/Информация : UTF-8 Plain Text
Заголовок : full
Язык : Russian
Default : Нет
Forced : Нет
Текст #3
Идентификатор : 6
Формат : UTF-8
Идентификатор кодека : S_TEXT/UTF8
Идентификатор кодека/Информация : UTF-8 Plain Text
Заголовок : full
Язык : English
Default : Нет
Forced : Нет
Statistics Tags Issue : mkvmerge v8.9.0 ('Father Daughter') 64bit 2016-03-12 04:01:20 / mkvmerge v7.9.0 ('Birds') 64bit 2016-03-29 09:06:10
FromStats_BitRate : 54
FromStats_Duration : 01:57:01.967000000
FromStats_FrameCount : 1327
FromStats_StreamSize : 47424
Текст #4
Идентификатор : 7
Формат : UTF-8
Идентификатор кодека : S_TEXT/UTF8
Идентификатор кодека/Информация : UTF-8 Plain Text
Заголовок : SDH
Язык : English
Default : Нет
Forced : Нет
Statistics Tags Issue : mkvmerge v8.9.0 ('Father Daughter') 64bit 2016-03-12 04:01:20 / mkvmerge v7.9.0 ('Birds') 64bit 2016-03-29 09:06:10
FromStats_BitRate : 60
FromStats_Duration : 02:00:37.687000000
FromStats_FrameCount : 1594
FromStats_StreamSize : 54313
Меню
00:00:00.000 : en:Chapter 1
00:07:26.696 : en:Chapter 2
00:14:41.631 : en:Chapter 3
00:21:48.098 : en:Chapter 4
00:29:36.566 : en:Chapter 5
00:37:42.927 : en:Chapter 6
00:43:44.539 : en:Chapter 7
00:51:30.713 : en:Chapter 8
00:59:35.447 : en:Chapter 9
01:06:58.264 : en:Chapter 10
01:13:07.508 : en:Chapter 11
01:22:18.308 : en:Chapter 12
01:30:34.721 : en:Chapter 13
01:38:15.098 : en:Chapter 14
01:46:46.942 : en:Chapter 15
01:53:34.808 : en:Chapter 16
Скриншоты:

Время раздачи: 24/7
[Профиль] [ЛС]
Кто просматривает тему:

Форум Тема Автор Размер
Антивирусы [Авторская раздача] Защита флешек от вирусов [04.09.2014] sergej644 7 KB
Программы [Утилиты] Reptilicus.net Защита телефона v.2.7 + клиент [Android 2.2+, RUS/ENG] TorrentFilm 3 MB
Научная и техническая литература Александр Мясников - Инфекции. Как защитить себя и своего ребенка (2016) PDF, FB2 достали все 6 MB
Научная и техническая литература Андрей Барбакадзе - Защитная книга водителя (2016) FB2, RTF достали все 13 MB
Фильмы (HD DVD, Blu-ray и BDRemux) Банда защитников / Vigilante Force (Джордж Эрмитаж / George Armitage) [1976, США, боевик, драма, криминал, приключения, BDRemux 1080p] DVO (НТВ+) + Sub Eng + Original Eng Russian Mafia 16.76 GB
Фильмы (HD Rips | 720p, 1080p) Банда защитников / Vigilante Force (Джордж Эрмитаж / George Armitage) [1976, США, боевик, драма, криминал, приключения, BDRip 720p] DVO (НТВ+) + Sub Eng + Original Eng Russian Mafia 6.21 GB
Фильмы 2011 года Банда защитников / Vigilante Force (Джордж Эрмитаж) [1976 г., боевик, триллер, драма, криминал, приключения, HDRip] [DVO (НТВ+)] Bathory 1.46 GB
Разное Безопасность в сети - Методы взлома и защиты (2015) PCRec sergej644 1021 MB
Показать сообщения:    

Текущее время: Сегодня 00:10

Часовой пояс: GMT



Вы не можете начинать темы
Вы не можете отвечать на сообщения
Вы не можете редактировать свои сообщения
Вы не можете удалять свои сообщения
Вы не можете голосовать в опросах
Вы не можете прикреплять файлы к сообщениям
Вы не можете скачивать файлы