Защитник / Concussion (2015) BDRip 720p от ivandubskoj | D | iTunes

 
Автор Сообщение

Russian Mafia ®

Пол:

Стаж: 1 год 8 месяцев

Сообщений: 4257



Награды: 10 (Подробнее)

За внесенный вклад в развитие сайта (Количество: 1) Top Releaser 3 (Количество: 1) Mega Seeder 2 (Количество: 1)
Торрент-статистика

Создавать темы 29-Мар-2016 18:31

[Цитировать]

Информация о фильме
Название: Защитник
Оригинальное название: Concussion
Год выхода: 2015
Жанр: Драма, биография, спорт
Режиссёр: Питер Ландесман
В ролях: Уилл Смит, Алек Болдуин, Альберт Брукс, Гугу Эмбата-Ро, Дэвид Морс, Арлисс Ховард, Майк О’Мэлли, Эдди Марсан, Хилл Харпер, Адевале Акинойе-Агбаже
О фильме:
Америка потрясена чередой неожиданных и необъяснимых смертей знаменитых спортсменов. Разгадать загадку предстоит талантливому молодому нейрохирургу, но, как оказалось, не все готовы услышать жестокую правду...
Выпущено: Великобритания, Австралия, США, Cantillon Company, The, LStar Capital, Scott Free Productions, Shuman Company, The, Village Roadshow Pictures
Продолжительность: 02:02:49
Перевод: Профессиональный (полное дублирование) [iTunes]
Оригинальная аудио-дорожка: Английская, английская (с пояснениями для слабовидящих), английская (с комментариями режиссёра)
Субтитры: Русские, украинские (форсированные, полные), английские (полные, SDH)
Файл
Кодек: MPEG-4 AVC
Качество: BDRip (720p)
Видео: MPEG-4 AVC, 6507 Кбит/с, 1280x536, 23.976 кадр/с
Аудио #1: Русский, Dolby AC3, 48000 Гц, 384 Кбит/с, 6 каналов (5.1) - DUB [iTunes Russia]
Аудио #2: Английский, DTS, 48000 Гц, 1510 Кбит/с, 6 каналов (5.1) - Оригинал
Аудио #3: Английский, Dolby AC3, 48000 Гц, 640 Кбит/с, 6 каналов (5.1) - Оригинал (пояснениями для слабовидящих)
Аудио #4: Английский, Dolby AC3, 48000 Гц, 192 Кбит/с, 2 канала (Стерео) - Оригинал (с комментариями режиссёра)
Навигация по главам: Есть (сохранены оригинальные чаптеры, как на Blu-ray)

x264 лог

x264 [info]: profile Main, level 4.1
x264 [info]: frame I:1361 Avg QP:11.38 size:122537
x264 [info]: frame P:40347 Avg QP:12.44 size: 62405
x264 [info]: frame B:134979 Avg QP:14.08 size: 24416
x264 [info]: consecutive B-frames: 2.6% 4.7% 7.4% 25.3% 15.4% 26.2% 6.7% 8.9% 1.6% 0.5% 0.5%

MediaInfo

General
Unique ID : 218377657890426354779252617717905397027 (0xA44A01CE22C263B49569AD7ACC449523)
Complete name : Concussion.2015.BDRip.720p.mkv
Format : Matroska
Format version : Version 4 / Version 2
File size : 7.92 GiB
Duration : 2h 2mn
Overall bit rate : 9 234 Kbps
Movie name : Защитник / Concussion (2015) BDRip (720p) от ivandubskoj
Encoded date : UTC 2016-03-29 16:37:06
Writing application : mkvmerge v7.8.0 ('River Man') 64bit built on Mar 27 2015 16:31:37
Writing library : libebml v1.3.1 + libmatroska v1.4.2
Video
ID : 1
Format : AVC
Format/Info : Advanced Video Codec
Format profile : High@L4.1
Format settings, CABAC : Yes
Format settings, ReFrames : 9 frames
Codec ID : V_MPEG4/ISO/AVC
Duration : 2h 2mn
Bit rate : 6 507 Kbps
Width : 1 280 pixels
Height : 536 pixels
Display aspect ratio : 2.40:1
Frame rate mode : Constant
Frame rate : 23.976 fps
Color space : YUV
Chroma subsampling : 4:2:0
Bit depth : 8 bits
Scan type : Progressive
Bits/(Pixel*Frame) : 0.396
Stream size : 5.43 GiB (68%)
Title : Защитник / Concussion (2015)
Writing library : x264 core 146 r2538 121396c
Encoding settings : cabac=1 / ref=9 / deblock=1:-3:3 / analyse=0x3:0x113 / me=umh / subme=11 / psy=1 / psy_rd=1.00:0.00 / mixed_ref=1 / me_range=32 / chroma_me=1 / trellis=2 / 8x8dct=1 / cqm=0 / deadzone=21,11 / fast_pskip=0 / chroma_qp_offset=-2 / threads=6 / lookahead_threads=1 / sliced_threads=0 / nr=0 / decimate=0 / interlaced=0 / bluray_compat=0 / constrained_intra=0 / bframes=10 / b_pyramid=2 / b_adapt=2 / b_bias=0 / direct=3 / weightb=1 / open_gop=0 / weightp=2 / keyint=240 / keyint_min=23 / scenecut=40 / intra_refresh=0 / rc_lookahead=40 / rc=2pass / mbtree=0 / bitrate=6507 / ratetol=1.0 / qcomp=0.60 / qpmin=0 / qpmax=69 / qpstep=4 / cplxblur=20.0 / qblur=0.5 / vbv_maxrate=50000 / vbv_bufsize=62500 / nal_hrd=none / filler=0 / ip_ratio=1.40 / pb_ratio=1.30 / aq=1:1.00
Language : English
Default : Yes
Forced : No
Audio #1
ID : 2
Format : AC-3
Format/Info : Audio Coding 3
Mode extension : CM (complete main)
Format settings, Endianness : Big
Codec ID : A_AC3
Duration : 2h 2mn
Bit rate mode : Constant
Bit rate : 384 Kbps
Channel(s) : 6 channels
Channel positions : Front: L C R, Side: L R, LFE
Sampling rate : 48.0 KHz
Bit depth : 16 bits
Compression mode : Lossy
Stream size : 337 MiB (4%)
Title : DUB [iTunes Russia]
Language : Russian
Default : Yes
Forced : No
Audio #2
ID : 3
Format : DTS
Format/Info : Digital Theater Systems
Mode : 16
Format settings, Endianness : Big
Codec ID : A_DTS
Duration : 2h 2mn
Bit rate mode : Constant
Bit rate : 1 509 Kbps
Channel(s) : 6 channels
Channel positions : Front: L C R, Side: L R, LFE
Sampling rate : 48.0 KHz
Bit depth : 16 bits
Compression mode : Lossy
Stream size : 1.29 GiB (16%)
Title : Original
Language : English
Default : No
Forced : No
Audio #3
ID : 4
Format : AC-3
Format/Info : Audio Coding 3
Mode extension : CM (complete main)
Format settings, Endianness : Big
Codec ID : A_AC3
Duration : 2h 2mn
Bit rate mode : Constant
Bit rate : 640 Kbps
Channel(s) : 6 channels
Channel positions : Front: L C R, Side: L R, LFE
Sampling rate : 48.0 KHz
Bit depth : 16 bits
Compression mode : Lossy
Stream size : 562 MiB (7%)
Title : Original [Deive]
Language : English
Default : No
Forced : No
Audio #4
ID : 5
Format : AC-3
Format/Info : Audio Coding 3
Mode extension : CM (complete main)
Format settings, Endianness : Big
Codec ID : A_AC3
Duration : 2h 2mn
Bit rate mode : Constant
Bit rate : 192 Kbps
Channel(s) : 2 channels
Channel positions : Front: L R
Sampling rate : 48.0 KHz
Bit depth : 16 bits
Compression mode : Lossy
Stream size : 169 MiB (2%)
Title : Original [Commentary]
Language : English
Default : No
Forced : No
Text #1
ID : 6
Format : UTF-8
Codec ID : S_TEXT/UTF8
Codec ID/Info : UTF-8 Plain Text
Title : Forced
Language : Russian
Default : Yes
Forced : No
Text #2
ID : 7
Format : UTF-8
Codec ID : S_TEXT/UTF8
Codec ID/Info : UTF-8 Plain Text
Title : Full
Language : Russian
Default : No
Forced : No
Text #3
ID : 8
Format : UTF-8
Codec ID : S_TEXT/UTF8
Codec ID/Info : UTF-8 Plain Text
Title : Forced
Language : Ukrainian
Default : No
Forced : No
Text #4
ID : 9
Format : UTF-8
Codec ID : S_TEXT/UTF8
Codec ID/Info : UTF-8 Plain Text
Title : Full
Language : Ukrainian
Default : No
Forced : No
Text #5
ID : 10
Format : UTF-8
Codec ID : S_TEXT/UTF8
Codec ID/Info : UTF-8 Plain Text
Title : Full
Language : English
Default : No
Forced : No
Text #6
ID : 11
Format : UTF-8
Codec ID : S_TEXT/UTF8
Codec ID/Info : UTF-8 Plain Text
Title : Full [SDH]
Language : English
Default : No
Forced : No
Menu
00:00:00.000 : en:Chapter 1
00:07:26.696 : en:Chapter 2
00:14:41.629 : en:Chapter 3
00:21:48.097 : en:Chapter 4
00:29:36.566 : en:Chapter 5
00:37:42.927 : en:Chapter 6
00:43:44.538 : en:Chapter 7
00:51:30.711 : en:Chapter 8
00:59:35.445 : en:Chapter 9
01:06:58.264 : en:Chapter 10
01:13:07.506 : en:Chapter 11
01:22:18.307 : en:Chapter 12
01:30:34.720 : en:Chapter 13
01:38:15.095 : en:Chapter 14
01:46:46.942 : en:Chapter 15
01:53:34.806 : en:Chapter 16

Скриншоты

[Профиль] [ЛС]
Кто просматривает тему:

Форум Тема Автор Размер
Антивирусы [Авторская раздача] Защита флешек от вирусов [04.09.2014] sergej644 7 KB
Программы [Утилиты] Reptilicus.net Защита телефона v.2.7 + клиент [Android 2.2+, RUS/ENG] TorrentFilm 3 MB
Научная и техническая литература Александр Мясников - Инфекции. Как защитить себя и своего ребенка (2016) PDF, FB2 достали все 6 MB
Научная и техническая литература Андрей Барбакадзе - Защитная книга водителя (2016) FB2, RTF достали все 13 MB
Фильмы (HD DVD, Blu-ray и BDRemux) Банда защитников / Vigilante Force (Джордж Эрмитаж / George Armitage) [1976, США, боевик, драма, криминал, приключения, BDRemux 1080p] DVO (НТВ+) + Sub Eng + Original Eng Russian Mafia 16.76 GB
Фильмы (HD Rips | 720p, 1080p) Банда защитников / Vigilante Force (Джордж Эрмитаж / George Armitage) [1976, США, боевик, драма, криминал, приключения, BDRip 720p] DVO (НТВ+) + Sub Eng + Original Eng Russian Mafia 6.21 GB
Фильмы 2011 года Банда защитников / Vigilante Force (Джордж Эрмитаж) [1976 г., боевик, триллер, драма, криминал, приключения, HDRip] [DVO (НТВ+)] Bathory 1.46 GB
Разное Безопасность в сети - Методы взлома и защиты (2015) PCRec sergej644 1021 MB
Показать сообщения:    

Текущее время: Сегодня 20:26

Часовой пояс: GMT



Вы не можете начинать темы
Вы не можете отвечать на сообщения
Вы не можете редактировать свои сообщения
Вы не можете удалять свои сообщения
Вы не можете голосовать в опросах
Вы не можете прикреплять файлы к сообщениям
Вы не можете скачивать файлы