Защитник / Concussion (2015) BDRip 720p | iTunes

 
Автор Сообщение

BOSS ®

Пол:

Стаж: 2 года 1 месяц

Сообщений: 3744

Откуда: ODESSA



Награды: 20 (Подробнее)

Top Releaser 3 (Количество: 1) Mega Seeder 5 (Количество: 1) Top Keeper 3 (Количество: 1)
Торрент-статистика

Создавать темы 29-Мар-2016 18:12

[Цитировать]

Информация о фильме
Название: Защитник
Оригинальное название: Concussion
Год выхода: 2015
Жанр: драма, биография, спорт
Режиссер: Питер Ландесман
В ролях: Уилл Смит, Алек Болдуин, Альберт Брукс, Гугу Эмбата-Ро, Дэвид Морс, Арлисс Ховард, Майк О’Мэлли, Эдди Марсан, Хилл Харпер, Адевале Акинойе-Агбаже
О фильме:
Америка потрясена чередой неожиданных и необъяснимых смертей знаменитых спортсменов. Разгадать загадку предстоит талантливому молодому нейрохирургу, но, как оказалось, не все готовы услышать жестокую правду…

Страна: Великобритания, Австралия, США
Продолжительность: 02:02:49
Перевод: Профессиональный (полное дублирование) [iTunes]
Файл
Кодек: x264
Качество: BDRip 720p
Видео: 1280х536 (2.40:1), 23,976 fps, AVC (H.264), [email protected]/* */, ~3100 Kbps avg, 0.188 bit/pixel
Аудио #1: 48 kHz, AC3 Dolby Digital, 3/2 (L,C,R,l,r) + LFE ch, ~384.00 kbps avg | RUS
Аудио #2: 48 kHz, AC3 Dolby Digital, 3/2 (L,C,R,l,r) + LFE ch, ~640.00 kbps avg | ENG
Субтитры: Английские

MI

General
Unique ID : 192532606108757597948842127400381148114 (0x90D86E5F0840E86DB8F467CB29C76BD2)
Complete name : J:СборкаЗащитник. - Concussion.2015.720p.BDRip.x264.AC3-[iTunes].mkv
Format : Matroska
Format version : Version 4 / Version 2
File size : 3.54 GiB
Duration : 2h 2mn
Overall bit rate : 4 126 Kbps
Encoded date : UTC 2016-03-29 17:08:35
Writing application : mkvmerge v7.3.0 ('Nouages') 32bit built on Oct 22 2014 18:44:01
Writing library : libebml v1.3.0 + libmatroska v1.4.1
DURATION : 02:02:48.384000000
NUMBER_OF_FRAMES : 230262
NUMBER_OF_BYTES : 353682432
_STATISTICS_WRITING_APP : mkvmerge v7.3.0 ('Nouages') 32bit built on Oct 22 2014 18:44:01
_STATISTICS_WRITING_DATE_UTC : 2016-03-29 17:08:35
_STATISTICS_TAGS : BPS DURATION NUMBER_OF_FRAMES NUMBER_OF_BYTES
Video #1
ID : 1
Format : AVC
Format/Info : Advanced Video Codec
Format profile : High@L4.1
Format settings, CABAC : Yes
Format settings, ReFrames : 12 frames
Codec ID : V_MPEG4/ISO/AVC
Duration : 2h 2mn
Bit rate : 3 100 Kbps
Width : 1 280 pixels
Height : 536 pixels
Display aspect ratio : 2.40:1
Frame rate mode : Constant
Frame rate : 23.976 fps
Color space : YUV
Chroma subsampling : 4:2:0
Bit depth : 8 bits
Scan type : Progressive
Bits/(Pixel*Frame) : 0.188
Stream size : 2.59 GiB (73%)
Writing library : x264 core 148 r2665kMod a01e339
Encoding settings : cabac=1 / ref=12 / deblock=1:-3:-3 / analyse=0x3:0x133 / me=umh / subme=10 / psy=1 / fade_compensate=0.00 / psy_rd=1.00:0.00 / mixed_ref=1 / me_range=64 / chroma_me=1 / trellis=2 / 8x8dct=1 / cqm=0 / deadzone=21,11 / fast_pskip=0 / chroma_qp_offset=-2 / threads=12 / lookahead_threads=3 / sliced_threads=0 / nr=0 / decimate=1 / interlaced=0 / bluray_compat=0 / constrained_intra=0 / fgo=0 / bframes=11 / b_pyramid=2 / b_adapt=2 / b_bias=0 / direct=3 / weightb=1 / open_gop=0 / weightp=2 / keyint=240 / keyint_min=23 / scenecut=40 / intra_refresh=0 / rc_lookahead=240 / rc=2pass / mbtree=1 / bitrate=3100 / ratetol=1.0 / qcomp=0.60 / qpmin=0 / qpmax=69 / qpstep=4 / cplxblur=20.0 / qblur=0.5 / vbv_maxrate=40000 / vbv_bufsize=30000 / nal_hrd=none / filler=0 / ip_ratio=1.40 / aq=2:1.00
Default : Yes
Forced : No
Color primaries : BT.709
Transfer characteristics : BT.709
Matrix coefficients : BT.709
Audio #2
ID : 2
Format : AC-3
Format/Info : Audio Coding 3
Mode extension : CM (complete main)
Format settings, Endianness : Big
Codec ID : A_AC3
Duration : 2h 2mn
Bit rate mode : Constant
Bit rate : 384 Kbps
Channel(s) : 6 channels
Channel positions : Front: L C R, Side: L R, LFE
Sampling rate : 48.0 KHz
Bit depth : 16 bits
Compression mode : Lossy
Delay relative to video : 970ms
Stream size : 337 MiB (9%)
Title : RUS [iTunes]
Default : No
Forced : No
Audio #3
ID : 3
Format : AC-3
Format/Info : Audio Coding 3
Mode extension : CM (complete main)
Format settings, Endianness : Big
Codec ID : A_AC3
Duration : 2h 2mn
Bit rate mode : Constant
Bit rate : 640 Kbps
Channel(s) : 6 channels
Channel positions : Front: L C R, Side: L R, LFE
Sampling rate : 48.0 KHz
Bit depth : 16 bits
Compression mode : Lossy
Stream size : 562 MiB (16%)
Title : English
Language : English
Default : Yes
Forced : No
Text #4
ID : 4
Format : UTF-8
Codec ID : S_TEXT/UTF8
Codec ID/Info : UTF-8 Plain Text
Title : English
Language : English
Default : No
Forced : No

Скриншоты

[Профиль] [ЛС]
Кто просматривает тему:

Форум Тема Автор Размер
Антивирусы [Авторская раздача] Защита флешек от вирусов [04.09.2014] sergej644 7 KB
Программы [Утилиты] Reptilicus.net Защита телефона v.2.7 + клиент [Android 2.2+, RUS/ENG] TorrentFilm 3 MB
Научная и техническая литература Александр Мясников - Инфекции. Как защитить себя и своего ребенка (2016) PDF, FB2 достали все 6 MB
Научная и техническая литература Андрей Барбакадзе - Защитная книга водителя (2016) FB2, RTF достали все 13 MB
Фильмы (HD DVD, Blu-ray и BDRemux) Банда защитников / Vigilante Force (Джордж Эрмитаж / George Armitage) [1976, США, боевик, драма, криминал, приключения, BDRemux 1080p] DVO (НТВ+) + Sub Eng + Original Eng Russian Mafia 16.76 GB
Фильмы (HD Rips | 720p, 1080p) Банда защитников / Vigilante Force (Джордж Эрмитаж / George Armitage) [1976, США, боевик, драма, криминал, приключения, BDRip 720p] DVO (НТВ+) + Sub Eng + Original Eng Russian Mafia 6.21 GB
Фильмы 2011 года Банда защитников / Vigilante Force (Джордж Эрмитаж) [1976 г., боевик, триллер, драма, криминал, приключения, HDRip] [DVO (НТВ+)] Bathory 1.46 GB
Разное Безопасность в сети - Методы взлома и защиты (2015) PCRec sergej644 1021 MB
Показать сообщения:    

Текущее время: Сегодня 15:44

Часовой пояс: GMT



Вы не можете начинать темы
Вы не можете отвечать на сообщения
Вы не можете редактировать свои сообщения
Вы не можете удалять свои сообщения
Вы не можете голосовать в опросах
Вы не можете прикреплять файлы к сообщениям
Вы не можете скачивать файлы