Защитник / Concussion (Питер Ландесман / Peter Landesman) [2015, США, Драма, спорт, BDRip 720p] Dub (iTunes) + Sub Eng + Original Eng

 
Автор Сообщение

Russian Mafia ®

Пол:

Стаж: 1 год 8 месяцев

Сообщений: 4256



Награды: 10 (Подробнее)

За внесенный вклад в развитие сайта (Количество: 1) Mega Seeder 3 (Количество: 1) Mega Seeder 4 (Количество: 1)
Торрент-статистика

Создавать темы 29-Мар-2016 05:34

[Цитировать]

-Защитник / Concussion- Страна: США
Жанр: Драма, спорт
Год выпуска: 2015
Продолжительность: 02:02:49-Перевод: Профессиональный (дублированный) iTunes
Cубтитры: английские
Режиссер: Питер Ландесман / Peter Landesman
В ролях: Уилл Смит, Гугу Эмбата-Ро, Люк Уилсон, Алек Болдуин, Битси Таллок, Стивен Мойер, Адевале Акинойе-Агбаже, Эдди Марсан, Дэвид Морс, Альберт Брукс-Описание: Америка потрясена чередой неожиданных и необъяснимых смертей знаменитых спортсменов. Разгадать загадку предстоит талантливому молодому нейрохирургу, но, как оказалось, не все готовы услышать жестокую правду…- -Качество видео: BDRip 720p
Формат видео: MKV
Видео: H.264, 1280x536, (2.40:1), 23.976 fps, 3741 kbps, 0.227 Bits/(Pixel*Frame)
Аудио: 48 kHz, AC3 Dolby Digital, 3/2 (L,C,R,l,r) + LFE ch, ~384.00 kbps avg Rus
Аудио 2: 48 kHz, DTS, 3/2 (L,C,R,l,r) + LFE ch, ~1509.00 kbps avg Eng
Формат субтитров: UTF-8-

MediaInfo

General
Unique ID : 183357248962618917398106214355670090581 (0x89F1525653E91D4180F6994FF65B4355)
Complete name : D:\Фильмы\Concussion.2015.BDRip.720p.mkv
Format : Matroska
Format version : Version 4 / Version 2
File size : 4.84 GiB
Duration : 2h 2mn
Overall bit rate : 5 636 Kbps
Encoded date : UTC 2016-03-28 18:04:00
Writing application : mkvmerge v8.3.0 ('Over the Horizon') 64bit
Writing library : libebml v1.3.1 + libmatroska v1.4.2
Video
ID : 1
Format : AVC
Format/Info : Advanced Video Codec
Format profile : High@L4.1
Format settings, CABAC : Yes
Format settings, ReFrames : 12 frames
Codec ID : V_MPEG4/ISO/AVC
Duration : 2h 2mn
Bit rate : 3 741 Kbps
Width : 1 280 pixels
Height : 536 pixels
Display aspect ratio : 2.40:1
Frame rate mode : Constant
Frame rate : 23.976 (24000/1001) fps
Color space : YUV
Chroma subsampling : 4:2:0
Bit depth : 8 bits
Scan type : Progressive
Bits/(Pixel*Frame) : 0.227
Stream size : 3.21 GiB (66%)
Writing library : x264 core 146 r0+2586 e393126 t_mod_Custom [8-bit@all X86_64]
Encoding settings : cabac=1 / ref=12 / deblock=1:-3:-3 / analyse=0x3:0x133 / me=umh / subme=10 / psy=1 / fade_compensate=0.00 / psy_rd=1.00:0.00 / mixed_ref=1 / me_range=24 / chroma_me=1 / trellis=2 / 8x8dct=1 / cqm=0 / deadzone=21,11 / fast_pskip=0 / chroma_qp_offset=-2 / threads=12 / lookahead_threads=3 / sliced_threads=0 / nr=0 / decimate=0 / interlaced=0 / bluray_compat=0 / constrained_intra=0 / fgo=0 / bframes=10 / b_pyramid=2 / b_adapt=2 / b_bias=0 / direct=3 / weightb=1 / open_gop=0 / weightp=2 / keyint=250 / keyint_min=23 / scenecut=40 / intra_refresh=0 / rc_lookahead=60 / rc=crf / mbtree=0 / crf=16.6000 / qcomp=0.65 / qpmin=0:0:0 / qpmax=69:69:69 / qpstep=4 / vbv_maxrate=62500 / vbv_bufsize=78125 / crf_max=0.0 / nal_hrd=none / filler=0 / ip_ratio=1.30 / pb_ratio=1.20 / aq=3:0.75 / aq-sensitivity=10.00 / aq-factor=1.00:1.00:1.00 / aq2=0 / aq3=0
Language : English
Default : Yes
Forced : No
Color range : Limited
Matrix coefficients : BT.709
Audio #1
ID : 2
Format : AC-3
Format/Info : Audio Coding 3
Mode extension : CM (complete main)
Format settings, Endianness : Big
Codec ID : A_AC3
Duration : 2h 2mn
Bit rate mode : Constant
Bit rate : 384 Kbps
Channel(s) : 6 channels
Channel positions : Front: L C R, Side: L R, LFE
Sampling rate : 48.0 KHz
Frame rate : 31.250 fps (1536 spf)
Compression mode : Lossy
Delay relative to video : 970ms
Stream size : 337 MiB (7%)
Default : No
Forced : No
Audio #2
ID : 3
Format : DTS
Format/Info : Digital Theater Systems
Mode : 16
Format settings, Endianness : Big
Codec ID : A_DTS
Duration : 2h 2mn
Bit rate mode : Constant
Bit rate : 1 509 Kbps
Channel(s) : 6 channels
Channel positions : Front: L C R, Side: L R, LFE
Sampling rate : 48.0 KHz
Frame rate : 93.750 fps (512 spf)
Bit depth : 24 bits
Compression mode : Lossy
Stream size : 1.29 GiB (27%)
Title : English DTS 5.1@1 509 Kbps
Language : English
Default : No
Forced : No
Text #1
ID : 4
Format : UTF-8
Codec ID : S_TEXT/UTF8
Codec ID/Info : UTF-8 Plain Text
Duration : 2h 0mn
Bit rate : 59 bps
Count of elements : 1587
Stream size : 52.7 KiB (0%)
Title : English
Language : English
Default : No
Forced : No
Text #2
ID : 5
Format : UTF-8
Codec ID : S_TEXT/UTF8
Codec ID/Info : UTF-8 Plain Text
Duration : 1h 57mn
Bit rate : 53 bps
Count of elements : 1322
Stream size : 46.0 KiB (0%)
Title : English (SDH)
Language : English
Default : No
Forced : No
Menu
00:00:00.000 : en:00:00:00.000
00:07:26.696 : en:00:07:26.696
00:14:41.631 : en:00:14:41.631
00:21:48.098 : en:00:21:48.098
00:29:36.566 : en:00:29:36.566
00:37:42.927 : en:00:37:42.927
00:43:44.539 : en:00:43:44.539
00:51:30.713 : en:00:51:30.713
00:59:35.447 : en:00:59:35.447
01:06:58.264 : en:01:06:58.264
01:13:07.508 : en:01:13:07.508
01:22:18.308 : en:01:22:18.308
01:30:34.721 : en:01:30:34.721
01:38:15.098 : en:01:38:15.098
01:46:46.942 : en:01:46:46.942
01:53:34.808 : en:01:53:34.808
-

Скриншоты

-
[Профиль] [ЛС]
Кто просматривает тему:

Форум Тема Автор Размер
Антивирусы [Авторская раздача] Защита флешек от вирусов [04.09.2014] sergej644 7 KB
Программы [Утилиты] Reptilicus.net Защита телефона v.2.7 + клиент [Android 2.2+, RUS/ENG] TorrentFilm 3 MB
Научная и техническая литература Александр Мясников - Инфекции. Как защитить себя и своего ребенка (2016) PDF, FB2 достали все 6 MB
Научная и техническая литература Андрей Барбакадзе - Защитная книга водителя (2016) FB2, RTF достали все 13 MB
Фильмы (HD DVD, Blu-ray и BDRemux) Банда защитников / Vigilante Force (Джордж Эрмитаж / George Armitage) [1976, США, боевик, драма, криминал, приключения, BDRemux 1080p] DVO (НТВ+) + Sub Eng + Original Eng Russian Mafia 16.76 GB
Фильмы (HD Rips | 720p, 1080p) Банда защитников / Vigilante Force (Джордж Эрмитаж / George Armitage) [1976, США, боевик, драма, криминал, приключения, BDRip 720p] DVO (НТВ+) + Sub Eng + Original Eng Russian Mafia 6.21 GB
Фильмы 2011 года Банда защитников / Vigilante Force (Джордж Эрмитаж) [1976 г., боевик, триллер, драма, криминал, приключения, HDRip] [DVO (НТВ+)] Bathory 1.46 GB
Разное Безопасность в сети - Методы взлома и защиты (2015) PCRec sergej644 1021 MB
Показать сообщения:    

Текущее время: Сегодня 08:14

Часовой пояс: GMT



Вы не можете начинать темы
Вы не можете отвечать на сообщения
Вы не можете редактировать свои сообщения
Вы не можете удалять свои сообщения
Вы не можете голосовать в опросах
Вы не можете прикреплять файлы к сообщениям
Вы не можете скачивать файлы