Зачётный препод 2 / Fack ju Göhte 2 (2015) BDRip 720p | Line

 
Автор Сообщение

достали все ®

Пол:

Стаж: 1 год 8 месяцев

Сообщений: 6570



Награды: 12 (Подробнее)

Top Releaser 3 (Количество: 1) Mega Releaser 3 (Количество: 1) Top Releaser 4 (Количество: 1)
Торрент-статистика

Создавать темы 26-Фев-2016 16:56

[Цитировать]

Информация о фильме
Название: Зачётный препод 2
Оригинальное название: Fack ju Göhte 2
Год выхода: 2015
Жанр: комедия
Режиссер: Бора Дагтекин
В ролях: Элиас ЭмБаре, Йелла Хаазе, Каролина Херфурт, Катя Риман, Макс фон Гробен, Гизем Эмре, Арам Арами, Анна-Лена Кленке, Лукас Райбер, Руна Грайнер
О фильме: Бывший грабитель, а ныне крутой препод в школе Гёте, Зеки Мюллер, обрел популярность среди учеников благодаря нетрадиционным методам преподавания. Не успел он заскучать, заполняя классные журналы и проверяя тетради, как его вовлекли в «войну школ»: для того, чтобы получить статус престижного учебного заведения, необходимо съездить с коррекционным классом старшеклассников в Таиланд, чтобы установить дружеские отношения с местной школой. Вы, наверное, догадались, кому «повезло» стать сопровождающим! Пару Зеки составит очаровательная коллега Лиси. Кто кому задаст жару в этой по-настоящему «горячей» поездке, полной соблазнов — большой вопрос…

Выпущено: Германия / Constantin Film International, Constantin Film Produktion GmbH, Red Balloon Films
Продолжительность: 01:55:25
Озвучивание: Дублированный [Line]
Примечание: Релиз без рекламы.
Файл
Формат: MKV
Качество: BDRip 720p
Видео: MPEG-4 AVC, 3046 kb/s, 1280x536
Аудио: Russian: AC3, 192 kb/s (2 ch) / German: DTS, 1509 kb/s (6 ch)

MI

Format : Matroska
Format version : Version 2
File size : 3.90 GiB
Duration : 1h 55mn
Overall bit rate : 4 844 Kbps
Encoded date : UTC 2016-02-26 15:18:28
Writing application : mkvmerge v7.8.0 ('River Man') 32bit built on Apr 3 2015 12:11:22
Writing library : libebml v1.3.1 + libmatroska v1.4.2
Video
ID : 1
Format : AVC
Format/Info : Advanced Video Codec
Format profile : High@L4.1
Format settings, CABAC : Yes
Format settings, ReFrames : 5 frames
Codec ID : V_MPEG4/ISO/AVC
Duration : 1h 55mn
Bit rate : 3 046 Kbps
Width : 1 280 pixels
Height : 536 pixels
Display aspect ratio : 2.40:1
Frame rate mode : Constant
Frame rate : 24.000 fps
Color space : YUV
Chroma subsampling : 4:2:0
Bit depth : 8 bits
Scan type : Progressive
Bits/(Pixel*Frame) : 0.185
Stream size : 2.46 GiB (63%)
Writing library : x264 core 148 r2665 a01e339
Encoding settings : cabac=1 / ref=5 / deblock=1:-3:-3 / analyse=0x3:0x133 / me=umh / subme=8 / psy=1 / psy_rd=1.00:0.15 / mixed_ref=1 / me_range=16 / chroma_me=1 / trellis=1 / 8x8dct=1 / cqm=0 / deadzone=21,11 / fast_pskip=0 / chroma_qp_offset=-3 / threads=12 / lookahead_threads=2 / sliced_threads=0 / nr=0 / decimate=1 / interlaced=0 / bluray_compat=0 / constrained_intra=0 / bframes=3 / b_pyramid=2 / b_adapt=2 / b_bias=0 / direct=3 / weightb=1 / open_gop=0 / weightp=2 / keyint=240 / keyint_min=24 / scenecut=40 / intra_refresh=0 / rc_lookahead=50 / rc=crf / mbtree=1 / crf=20.0 / qcomp=0.60 / qpmin=0 / qpmax=69 / qpstep=4 / ip_ratio=1.40 / aq=1:1.00
Language : English
Default : Yes
Forced : No
Audio #1
ID : 2
Format : AC-3
Format/Info : Audio Coding 3
Mode extension : CM (complete main)
Format settings, Endianness : Big
Codec ID : A_AC3
Duration : 1h 55mn
Bit rate mode : Constant
Bit rate : 192 Kbps
Channel(s) : 2 channels
Channel positions : Front: L R
Sampling rate : 48.0 KHz
Bit depth : 16 bits
Compression mode : Lossy
Stream size : 159 MiB (4%)
Language : Russian
Default : Yes
Forced : No
Audio #2
ID : 3
Format : DTS
Format/Info : Digital Theater Systems
Mode : 16
Format settings, Endianness : Big
Codec ID : A_DTS
Duration : 1h 55mn
Bit rate mode : Constant
Bit rate : 1 509 Kbps
Channel(s) : 6 channels
Channel positions : Front: L C R, Side: L R, LFE
Sampling rate : 48.0 KHz
Bit depth : 24 bits
Compression mode : Lossy
Stream size : 1.22 GiB (31%)
Language : German
Default : No
Forced : No
Menu
00:00:00.000 : en:00:00:00.000
00:06:46.375 : en:00:06:46.375
00:13:50.667 : en:00:13:50.667
00:18:46.375 : en:00:18:46.375
00:26:16.625 : en:00:26:16.625
00:32:44.583 : en:00:32:44.583
00:37:24.042 : en:00:37:24.042
00:42:59.292 : en:00:42:59.292
00:51:12.250 : en:00:51:12.250
00:57:03.458 : en:00:57:03.458
01:05:25.250 : en:01:05:25.250
01:11:51.125 : en:01:11:51.125
01:17:49.958 : en:01:17:49.958
01:25:56.208 : en:01:25:56.208
01:34:00.208 : en:01:34:00.208
01:39:58.458 : en:01:39:58.458
01:47:26.458 : en:01:47:26.458

Скриншоты




[Профиль] [ЛС]
Показать сообщения:    

Текущее время: Сегодня 08:57

Часовой пояс: GMT



Вы не можете начинать темы
Вы не можете отвечать на сообщения
Вы не можете редактировать свои сообщения
Вы не можете удалять свои сообщения
Вы не можете голосовать в опросах
Вы не можете прикреплять файлы к сообщениям
Вы не можете скачивать файлы