Зачинщики / Masterminds (2016) WEB-DL 1080p | Apple TV | iTunes

 
Автор Сообщение

достали все ®

Пол:

Стаж: 3 года 8 месяцев

Сообщений: 6771



Награды: 12 (Подробнее)

Top Releaser 4 (Количество: 1) За внесенный вклад в развитие сайта (Количество: 1) Mega Seeder 5 (Количество: 1)
Торрент-статистика

Создавать темы 23-Ноя-2016 11:10

[Цитировать]

-Зачинщики / Masterminds
«А что бы ты делал с $17 миллионами?»
- Информация о фильме:
♦ Страна: США
♦ Производство: Профит
♦ Год выпуска: 2016
♦ Жанр: Боевик, комедия, криминал
♦ Режиссер: Джаред Хесс
♦ В ролях: Зак Галифианакис, Оуэн Уилсон, Кристен Уиг, Джейсон Судейкис, Кейт МакКиннон, Лесли Джонс, Мэри Элизабет Эллис, Кен Марино, Девин Рэтрей, Джон Дэйли
♦ Перевод: Дублированный | [iTunes]
♦ Продолжительность: 01:30:44
Описание фильма:
◈ Основано на реальных событиях. 1985 год. Навстречу ледоколу «Михаил Громов» движется огромный айсберг. Уходя от столкновения с ним, судно попадает в ледовый плен и оказывается в вынужденном дрейфе вблизи побережья Антарктиды. Вокруг зловещая тишина и жуткий холод. Горючее на исходе… Нервы на пределе… И даже если можно было бы уйти – деваться все равно некуда. У командования ледокола нет права на ошибку. Одно неверное решение – и тяжелые льды раздавят судно…

[color=DarkRed]iTunes Meta Tags / MediaInfo[/color]

Sort Name: Masterminds
XID: Apple:vendor_id:2016-713089
contentID: 1159762255
Copyright: © 2016 ARMORED CAR PRODUCTIONS, LLC ALL RIGHTS RESERVED
Screenwriters: Крис Боуман, Хаббел Палмер, Эмили Спайви
Producers: Джон Голдвин, Лорн Майклз, Эндрю Панай
Director: Джаред Хесс
Cast: Зак Галифианакис, Оуэн Уилсон, Кристен Уиг, Джейсон Судейкис, Кейт МакКиннон, Лесли Джонс, Мэри Элизабет Эллис, Кен Марино, Девин Рэтрей, Джон Дэйли, Диомид Виноградов, Илья Бледный, Татьяна Шитова, Дмитрий Поляновский, Ольга Кузнецова
Studio: Relativity Studios
Rating: 4
Long Deion: Бывший клерк банка вместе со своей любовницей проворачивает дерзкое ограбление инкассаторской машины и забирает 17 миллионов баксов. Но по неопытности преступники-дебютанты оставляют на месте преступления столько следов и улик, что вряд ли смогут получить удовольствие от добычи.
Deion: Бывший клерк банка вместе со своей любовницей проворачивает дерзкое ограбление инкассаторской машины и забирает 17 миллионов баксов. Но по неопытности преступники-дебютанты оставляют на месте преступления столько следов и улик, что вряд ли смогут получить удовольствие от добычи.
Release Date: 2016-09-28T08:00:00Z
Genre: Comedy
Artist: Jared Hess
Name: Masterminds (2016)-General
Complete name : Masterminds.WEB-DL.1080p.m4v
Format : MPEG-4
Codec ID : M4V
File size : 3.63 GiB
Duration : 1h 30mn
Overall bit rate mode : Variable
Overall bit rate : 5 732 Kbps
Movie name : Masterminds (2016)
Performer : Jared Hess
Director : Джаред Хесс
Actor : Зак Галифианакис / Оуэн Уилсон / Кристен Уиг / Джейсон Судейкис / Кейт МакКиннон / Лесли Джонс / Мэри Элизабет Эллис / Кен Марино / Девин Рэтрей / Джон Дэйли / Диомид Виноградов / Илья Бледный / Татьяна Шитова / Дмитрий Поляновский / Ольга Кузнецова
Screenplay by : Крис Боуман / Хаббел Палмер / Эмили Спайви
Producer : Джон Голдвин / Лорн Майклз / Эндрю Панай
Production studio : Relativity Studios
Genre : Comedy
ContentType : Short Film
Deion : Бывший клерк банка вместе со своей любовницей проворачивает дерзкое ограбление инкассаторской машины и забирает 17 миллионов баксов. Но по неопытности преступники-дебютанты оставляют на месте преступления столько следов и улик, что вряд ли смогут получить удовольствие от добычи.
Recorded date : UTC 2016-09-28 08:00:00
Encoded date : UTC 2016-11-22 09:27:52
Tagged date : UTC 2016-11-22 09:36:41
Copyright : © 2016 ARMORED CAR PRODUCTIONS, LLC ALL RIGHTS RESERVED
Cover : Yes
Rating : None
Title/Sort : Masterminds
LongDeion : Бывший клерк банка вместе со своей любовницей проворачивает дерзкое ограбление инкассаторской машины и забирает 17 миллионов баксов. Но по неопытности преступники-дебютанты оставляют на месте преступления столько следов и улик, что вряд ли смогут получить удовольствие от добычи.
AppleStoreCatalogID : 1159762255
Vendor : Apple:vendor_id:2016-713089
ContentRating : mpaa|PG-13|300|
Video #1
ID : 1
Format : AVC
Format/Info : Advanced Video Codec
Format profile : High@L4
Format settings, CABAC : Yes
Format settings, ReFrames : 4 frames
Codec ID : avc1
Codec ID/Info : Advanced Video Coding
Duration : 1h 30mn
Bit rate : 5 182 Kbps
Width : 1 920 pixels
Height : 1 038 pixels
Display aspect ratio : 1.85:1
Frame rate mode : Constant
Frame rate : 25.000 fps
Color space : YUV
Chroma subsampling : 4:2:0
Bit depth : 8 bits
Scan type : Progressive
Bits/(Pixel*Frame) : 0.104
Stream size : 3.28 GiB (90%)
Title : Main Program
Language : English
Encoded date : UTC 2016-11-22 09:27:52
Tagged date : UTC 2016-11-22 09:27:58
Color range : Limited
Color primaries : BT.709
Transfer characteristics : BT.709
Matrix coefficients : BT.709
Video #2
ID : 5
Format : JPEG
Codec ID : jpeg
Duration : 1h 30mn
Bit rate mode : Variable
Bit rate : 998 bps
Width : 640 pixels
Height : 346 pixels
Display aspect ratio : 1.85:1
Frame rate mode : Variable
Frame rate : 0.002 fps
Minimum frame rate : 0.001 fps
Maximum frame rate : 0.003 fps
Color space : YUV
Chroma subsampling : 4:2:0
Bit depth : 8 bits
Compression mode : Lossy
Bits/(Pixel*Frame) : 2.253
Stream size : 792 KiB (0%)
Title : Chapter Images
Language : English
Encoded date : UTC 2016-11-22 09:28:05
Tagged date : UTC 2016-11-22 09:28:05
Audio #1
ID : 2
Format : AAC
Format/Info : Advanced Audio Codec
Format profile : LC
Codec ID : 40
Duration : 1h 30mn
Bit rate mode : Variable
Bit rate : 157 Kbps
Maximum bit rate : 231 Kbps
Channel(s) : 2 channels
Channel positions : Front: L R
Sampling rate : 48.0 KHz
Compression mode : Lossy
Stream size : 102 MiB (3%)
Title : Russian Stereo
Language : Russian
Encoded date : UTC 2016-11-22 09:27:52
Tagged date : UTC 2016-11-22 09:27:59
Audio #2
ID : 3
Format : AC-3
Format/Info : Audio Coding 3
Mode extension : CM (complete main)
Format settings, Endianness : Big
Codec ID : ac-3
Duration : 1h 30mn
Bit rate mode : Constant
Bit rate : 384 Kbps
Channel(s) : 6 channels
Channel positions : Front: L C R, Side: L R, LFE
Sampling rate : 48.0 KHz
Bit depth : 16 bits
Compression mode : Lossy
Stream size : 249 MiB (7%)
Title : Russian DD 5.1
Language : Russian
Encoded date : UTC 2016-11-22 09:27:52
Tagged date : UTC 2016-11-22 09:27:58
Menu #1
00:00:00.000 : 1
00:06:20.000 : 2
00:12:27.200 : 3
00:19:46.960 : 4
00:26:52.880 : 5
00:32:31.160 : 6
00:39:10.680 : 7
00:45:47.320 : 8
00:51:07.600 : 9
00:58:37.560 : 10
01:04:24.520 : 11
01:10:03.840 : 12
01:16:06.160 : 13
Menu #2
ID : 4
Codec ID : text
Duration : 1h 30mn
Language : English
Encoded date : UTC 2016-11-22 09:27:59
Tagged date : UTC 2016-11-22 09:27:59
00:00:00.000 : 1
00:06:20.000 : 2
00:12:27.200 : 3
00:19:46.960 : 4
00:26:52.880 : 5
00:32:31.160 : 6
00:39:10.680 : 7
00:45:47.320 : 8
00:51:07.600 : 9
00:58:37.560 : 10
01:04:24.520 : 11
01:10:03.840 : 12
01:16:06.160 : 13
Bit rate mode : VBR
Технические данные файла:
♦ Качество: WEB-DL (Исходник: WEB-DL 1080p HDClub)
♦ Формат: M4V
♦ Тип: HD (1080p)
♦ Видео кодек: H.264
♦ Аудио кодек: AAC-LC, AC-3
♦ Видео: 1920x1038 (1.85:1), 25 fps, 5 182 Kbps (0.104 bit/pixel)
♦ Аудио #1: AAC / 2.0 / 160 Kbps / 48.0 KHz | RUS
♦ Аудио #2: AC-3 / 5.1 / 384 Kbps / 48.0 KHz | RUS
Скриншоты
[Профиль] [ЛС]
Показать сообщения:    

Текущее время: Сегодня 14:11

Часовой пояс: GMT



Вы не можете начинать темы
Вы не можете отвечать на сообщения
Вы не можете редактировать свои сообщения
Вы не можете удалять свои сообщения
Вы не можете голосовать в опросах
Вы не можете прикреплять файлы к сообщениям
Вы не можете скачивать файлы