Зачинщики / Masterminds (2015) WEBRip 1080p | Трейлер

 
Автор Сообщение

достали все ®

Пол:

Стаж: 1 год 8 месяцев

Сообщений: 6571



Награды: 12 (Подробнее)

Mega Seeder 4 (Количество: 1) Mega Seeder 1 (Количество: 1) Top Releaser 2 (Количество: 1)
Торрент-статистика

Создавать темы 09-Июл-2015 09:37

[Цитировать]

Год выпуска: 2015
Производство: США
Жанр: боевик, комедия, криминал
Режиссер: Джаред Хесс
Продюсеры: Джон Голдвин, Лорн Майклз, Эндрю Панай
Актеры: Зак Галифианакис, Оуэн Уилсон, Кристен Уиг, Джейсон Судейкис, Кейт МакКиннон, Кен Марино, Мэри Элизабет Эллис, Лесли Джонс, Девин Рэтрей, Аллегра Нова
Описание фильма:
Бывший клерк банка вместе со своей любовницей проворачивает дерзкое ограбление инкассаторской машины и забирает 17 миллионов баксов. Но по неопытности преступники-дебютанты оставляют на месте преступления столько следов и улик, что вряд ли смогут получить удовольствие от добычи.
Дата мировой премьеры: 6 августа 2015
Дата российской премьеры: 10 сентября 2015

Продолжительность: 00:01:43
Качество видео: WEBRip 1080p
Видеокодек: MPEG-4 AVC/H.264
Битрейт видео: 8347 Кбит/сек
Размер кадра: 1920x800
Аудиокодек: AAC
Битрейт аудио: 93,6 Кбит/сек

MediaInfo:

Общее
Полное имя : Masterminds.mp4
Формат : MPEG-4
Профиль формата : Base Media
Идентификатор кодека : isom
Размер файла : 105 Мбайт
Продолжительность : 1 м. 43 с.
Режим общего битрейта : Переменный
Общий поток : 8446 Кбит/сек
Дата кодирования : UTC 2015-04-01 15:25:34
Дата пометки : UTC 2015-04-01 15:25:34
Программа кодирования : Lavf51.12.1
Видео
Идентификатор : 1
Формат : AVC
Формат/Информация : Advanced Video Codec
Профиль формата : Baseline@L4
Параметр CABAC формата : Нет
Параметр ReFrames формата : 1 кадр
Параметр GOP формата : M=1, N=12
Идентификатор кодека : avc1
Идентификатор кодека/Информация : Advanced Video Coding
Продолжительность : 1 м. 43 с.
Битрейт : 8347 Кбит/сек
Ширина : 1920 пикселей
Высота : 800 пикселей
Соотношение сторон : 2,40:1
Режим частоты кадров : Постоянный
Частота кадров : 25,000 кадров/сек
Цветовое пространство : YUV
Субдискретизация насыщенности : 4:2:0
Битовая глубина : 8 бит
Тип развёртки : Прогрессивная
Бит/(Пиксели*Кадры) : 0.217
Размер потока : 103 Мбайт (99%)
Дата кодирования : UTC 2015-04-01 15:25:34
Дата пометки : UTC 2015-04-01 15:25:34
Аудио
Идентификатор : 2
Формат : AAC
Формат/Информация : Advanced Audio Codec
Профиль формата : LC
Идентификатор кодека : 40
Продолжительность : 1 м. 43 с.
Вид битрейта : Переменный
Битрейт : 93,6 Кбит/сек
Каналы : 2 канала
Расположение каналов : Front: L R
Частота : 48,0 КГц
Метод сжатия : С потерями
Размер потока : 1,16 Мбайт (1%)
Дата кодирования : UTC 2015-04-01 15:25:34
Дата пометки : UTC 2015-04-01 15:25:34
Скриншоты - -

Скриншоты

[Профиль] [ЛС]
Показать сообщения:    

Текущее время: Сегодня 00:31

Часовой пояс: GMT



Вы не можете начинать темы
Вы не можете отвечать на сообщения
Вы не можете редактировать свои сообщения
Вы не можете удалять свои сообщения
Вы не можете голосовать в опросах
Вы не можете прикреплять файлы к сообщениям
Вы не можете скачивать файлы