Захват горы тигра / The Taking of Tiger Mountain (2014) BDRip 720p | L1

 
Автор Сообщение

достали все ®

Пол:

Стаж: 1 год 8 месяцев

Сообщений: 6613



Награды: 12 (Подробнее)

Mega Releaser 3 (Количество: 1) Mega Seeder 2 (Количество: 1) Mega Seeder 4 (Количество: 1)
Торрент-статистика

Создавать темы 25-Май-2015 21:50

[Цитировать]

Информация о фильме
Название: Захват горы тигра
Оригинальное название: The Taking of Tiger Mountain
Год выпуска: 2014
Жанр: Драма, боевик
Режиссер: Цуй Харк
В ролях: Чжан Ханьюй, Кенни Лин, Лия Тун, Тони Люн Ка Фай, Хань Гэн, Миу Це, Ю Нан
О фильме: В канун празднования Нового года добропорядочный гражданин Китая застает по телевизору показ «Ловкого захвата Тигровой горы» и загорается желанием побольше узнать о событиях, легших в основу разудалого коммунистического мюзикла. Затем действие переносится в заснеженный 1946-й год, когда отряд китайских солдат во главе с 203-м оказывается на территории подвластной Банде Тигровой горы. Лидер банды по прозвищу Ястреб закрепился в неприступном форте, окруженный сотнями подчиненных, в распоряжении которых значительный арсенал. Ястреб мечтает заполучить в свое распоряжение три легендарных карты, обладая которыми его банда сможет занять доминирующее положение в стране и контролировать все окрестные территории. Само собой, ему надо помешать, поэтому один из солдат решает проникнуть на вражескую базу и подготовить все к неожиданному нападению, которое приведет к ликвидации бандитов. Он прикидывается членом конкурирующей банды и начинает втираться в доверие к Ястребу.

Выпущено: Китай, Гонконг, Baidu, Bona Film Group, Huaxia Film Distribution Company, Youku Original
Продолжительность: 02:22:41
Перевод: Любительский (одноголосый, закадровый)
Файл
Качество: BDRip 720p
Формат: MKV
Видео: MPEG4/AVC, 7336 Кбит/сек, 1280х690 (1.85:1), 24.000 кадра/сек
Аудио 1: AC3, 2 канала, 384 Кбит/сек | Русский
Аудио 2: AC3, 6 каналов, 640 Кбит/сек | Китайский
Субтитры: Английские
Навигация по главам: Есть

MediaInfo:

Общее
Уникальный идентификатор : 207453373196994642670198262783436966361 (0x9C1210FC5761E1B79DE89199E1E8C9D9)
Полное имя : The Taking of Tiger Mountain. (2014) BDRip 720p.mkv
Формат : Matroska
Версия формата : Version 2
Размер файла : 8,33 Гбайт
Продолжительность : 2 ч. 22 м.
Общий поток : 8359 Кбит/сек
Название фильма : The Taking of Tiger Mountain. 2014
Дата кодирования : UTC 2015-05-25 12:07:33
Программа кодирования : mkvmerge v5.8.0 ('No Sleep / Pillow') built on Sep 2 2012 15:37:04
Библиотека кодирования : libebml v1.2.3 + libmatroska v1.3.0
Видео
Идентификатор : 1
Формат : AVC
Формат/Информация : Advanced Video Codec
Профиль формата : High@L4.1
Параметр CABAC формата : Да
Параметр ReFrames формата : 9 кадров
Идентификатор кодека : V_MPEG4/ISO/AVC
Продолжительность : 2 ч. 22 м.
Битрейт : 7336 Кбит/сек
Ширина : 1280 пикселей
Высота : 690 пикселей
Соотношение сторон : 1,85:1
Режим частоты кадров : Постоянный
Частота кадров : 24,000 кадра/сек
Цветовое пространство : YUV
Субдискретизация насыщенности : 4:2:0
Битовая глубина : 8 бит
Тип развёртки : Прогрессивная
Бит/(Пиксели*Кадры) : 0.346
Размер потока : 7,14 Гбайт (86%)
Заголовок : WiKi
Библиотека кодирования : x264 core 129 r2245+704+36 8e61944 tMod+MixAQ [8-bit@4:2:0 X86_64]
Настройки программы : cabac=1 / ref=9 / deblock=1:-3:-3 / analyse=0x3:0x133 / me=umh / subme=11 / psy=1 / fade_compensate=0.00 / psy_rd=1.05:0.10 / mixed_ref=1 / me_range=32 / chroma_me=1 / trellis=2 / 8x8dct=1 / cqm=0 / deadzone=21,11 / fast_pskip=0 / chroma_qp_offset=-3 / threads=18 / lookahead_threads=3 / sliced_threads=0 / nr=0 / decimate=0 / interlaced=0 / bluray_compat=0 / constrained_intra=0 / fgo=0 / bframes=10 / b_pyramid=2 / b_adapt=2 / b_bias=0 / direct=3 / weightb=1 / open_gop=0 / weightp=2 / keyint=250 / keyint_min=24 / scenecut=40 / intra_refresh=0 / rc_lookahead=80 / rc=2pass / mbtree=1 / bitrate=7336 / ratetol=1.0 / qcomp=0.70 / qpmin=0 / qpmax=69 / qpstep=4 / cplxblur=20.0 / qblur=0.5 / ip_ratio=1.40 / aq=1 / aq-strength=0.85 / aq-sensitivity=10.00 / aq-ifactor=1.00 / aq-pfactor=1.00 / aq-bfactor=1.00 / aq2=0
Язык : Chinese
Default : Да
Forced : Нет
Коэффициенты матрицы : BT.709
Аудио #1
Идентификатор : 2
Формат : AC-3
Формат/Информация : Audio Coding 3
Расширение режима : CM (complete main)
Параметр Endianness формата : Big
Идентификатор кодека : A_AC3
Продолжительность : 2 ч. 22 м.
Вид битрейта : Постоянный
Битрейт : 384 Кбит/сек
Каналы : 2 канала
Расположение каналов : Front: L R
Частота : 48,0 КГц
Битовая глубина : 16 бит
Метод сжатия : С потерями
Размер потока : 392 Мбайт (5%)
Заголовок : L1
Язык : Russian
Default : Да
Forced : Нет
Аудио #2
Идентификатор : 3
Формат : AC-3
Формат/Информация : Audio Coding 3
Расширение режима : CM (complete main)
Параметр Endianness формата : Big
Идентификатор кодека : A_AC3
Продолжительность : 2 ч. 22 м.
Вид битрейта : Постоянный
Битрейт : 640 Кбит/сек
Каналы : 6 каналов
Расположение каналов : Front: L C R, Side: L R, LFE
Частота : 48,0 КГц
Битовая глубина : 16 бит
Метод сжатия : С потерями
Размер потока : 653 Мбайт (8%)
Заголовок : Original
Язык : Chinese
Default : Нет
Forced : Нет
Текст
Идентификатор : 4
Формат : UTF-8
Идентификатор кодека : S_TEXT/UTF8
Идентификатор кодека/Информация : UTF-8 Plain Text
Заголовок : Full
Язык : English
Default : Нет
Forced : Нет
Меню
00:00:00.000 : en:00:00:00.000
00:10:26.958 : en:00:10:26.958
00:21:32.667 : en:00:21:32.667
00:27:25.500 : en:00:27:25.500
00:37:25.458 : en:00:37:25.458
00:50:17.375 : en:00:50:17.375
00:57:28.024 : en:00:57:28.024
01:04:27.833 : en:01:04:27.833
01:12:00.958 : en:01:12:00.958
01:20:20.375 : en:01:20:20.375
01:30:42.667 : en:01:30:42.667
01:36:30.125 : en:01:36:30.125
01:45:57.583 : en:01:45:57.583
01:51:57.500 : en:01:51:57.500
01:57:50.250 : en:01:57:50.250
02:08:53.666 : en:02:08:53.666
[Профиль] [ЛС]
Кто просматривает тему:

Форум Тема Автор Размер
BBC BBC: Захватывающая история криминалистики / Catching History's Criminals: The Forensics Story [сезон 1 серии 1-3 из 3] (Graham Russel) [2015 г., Документальный, история, криминалистика, HDTVRip... skorpionN 3.65 GB
Отечественные cериалы Захват / Серии 1-8 (Эльдар Салаватов) [2014 г., Детектив, SATRip] Pensioner 4.69 GB
Фильмы 2014 года Захват горы тигра / The Taking of Tiger Mountain (2014) HDRip | L1 достали все 2.75 GB
Зарубежные Захват горы тигра в 3Д / Zhì qu weihu shan / The Taking of Tiger Mountain 3D (Цуй Харк / Tsui Hark) [2014, Боевик, Мелодрама, Комедия, BDrip-AVC] VO, Half OverUnder / Вертикальная анамор... TorrentFilm 19.92 GB
Зарубежные Захват горы тигра в 3Д / Zhì qu weihu shan / The Taking of Tiger Mountain 3D (Цуй Харк / Tsui Hark) [2014, Китай, Гонконг, Боевик, Мелодрама, Комедия, Blu-ray Remux 1080p] BD3D TorrentFilm 40.12 GB
Фильмы (HD DVD, Blu-ray и BDRemux) Захватывающее время / The Spectacular Now (2013) BDRemux 1080p sergej644 29.67 GB
Фильмы (HD Rips | 720p, 1080p) Захватывающее время / The Spectacular Now (2013) BDRip 720p | iTunes sergej644 6.56 GB
Фильмы 2014 года Захваченный / Piege (2014) HDRip | L1 sergej644 1.37 GB
Показать сообщения:    

Текущее время: Сегодня 00:33

Часовой пояс: GMT



Вы не можете начинать темы
Вы не можете отвечать на сообщения
Вы не можете редактировать свои сообщения
Вы не можете удалять свои сообщения
Вы не можете голосовать в опросах
Вы не можете прикреплять файлы к сообщениям
Вы не можете скачивать файлы