Захват горы тигра в 3Д / Zhì qu weihu shan / The Taking of Tiger Mountain 3D (Цуй Харк / Tsui Hark) [2014, Боевик, Мелодрама, Комедия, BDrip-AVC] VO, Half OverUnder / Вертикальная анаморфная стереопара

 
Автор Сообщение

TorrentFilm ®

Пол:

Стаж: 1 год 11 месяцев

Сообщений: 7741



Награды: Нет

Торрент-статистика

Создавать темы 29-Фев-2016 00:08

[Цитировать]

Захват горы тигра
Zhì qu weihu shan
The Taking of Tiger Mountain
- Год выпуска: 2014
Страна: Китай, Гонконг
Жанр: Боевик, Мелодрама, Комедия
Продолжительность: 02:23:11
Перевод: Любительский одноголосый закадровый - Виталий Сергеев
Режиссер: Цуй Харк / Tsui Hark
В ролях: Чжан Ханьюй, Кенни Лин, Лия Тун, Тони Люн Ка Фай, Хань Гэн, Миу Це, Нань Юй-Описание: История разворачивается в 1940-х годах и рассказывает о спецагенте, которому необходимо внедриться в банду особо опасных преступников.-Премьера (мир): 23 декабря 2014
. .
За исходный BD 3D Remux спасибо и Daddy_BOSS!
-Качество: BDRip (by Ash61)
Контейнер: MKV
Формат 3D: Half OverUnder / Вертикальная анаморфная стереопара
Порядок ракурсов: левый ракурс первый-Видео: AVC / 23,976 fps / 1920х1080p / 18.2 Mbps
Аудио:
#1 - Русский / AC3 / 48 KHz / 5.1 ch / 640 Kbps (VO - В.Сергеев)
#2 - Английский / AC3 / 48 KHz / 5.1 ch / 640 Kbps (Original - BD 3D)
Субтитры: Внешние (SRT UTF-8) Русские Форсированные (включены по умолчанию)

MediaInfo

General
Unique ID : 224289848005304563309297358399354142684 (0xA8BCA74878354D128B530682E20F7FDC)
Complete name : E:\TheTakingOfTigerMountain(2014)3D-halfOU(Ash61)VO\TheTakingOfTigerMountain(2014)3D-halfOU(Ash61)VO.mkv
Format : Matroska
Format version : Version 2
File size : 19.9 GiB
Duration : 2h 23mn
Overall bit rate : 19.9 Mbps
Movie name : Захват горы тигра / The Taking of Tiger Mountain (2014) в 3Д
Encoded date : UTC 2016-02-07 17:30:21
Writing application : mkvmerge v5.8.0 ('No Sleep / Pillow') built on Sep 2 2012 15:37:04
Writing library : libebml v1.2.3 + libmatroska v1.3.0
Video
ID : 1
Format : AVC
Format/Info : Advanced Video Codec
Format profile : High@L4.1
Format settings, CABAC : Yes
Format settings, ReFrames : 4 frames
Codec ID : V_MPEG4/ISO/AVC
Duration : 2h 23mn
Bit rate : 18.2 Mbps
Width : 1 920 pixels
Height : 1 080 pixels
Display aspect ratio : 16:9
Frame rate mode : Constant
Frame rate : 23.976 fps
Color space : YUV
Chroma subsampling : 4:2:0
Bit depth : 8 bits
Scan type : Progressive
Bits/(Pixel*Frame) : 0.367
Stream size : 18.2 GiB (92%)
Title : BDRip by Ash61
Writing library : x264 core 146 r2538 121396c
Encoding settings : cabac=1 / ref=4 / deblock=1:-3:-3 / analyse=0x3:0x113 / me=umh / subme=10 / psy=1 / psy_rd=1.00:0.00 / mixed_ref=1 / me_range=32 / chroma_me=1 / trellis=2 / 8x8dct=1 / cqm=0 / deadzone=21,11 / fast_pskip=1 / chroma_qp_offset=-2 / threads=12 / lookahead_threads=3 / sliced_threads=0 / nr=0 / decimate=1 / interlaced=0 / bluray_compat=0 / constrained_intra=0 / bframes=11 / b_pyramid=2 / b_adapt=2 / b_bias=0 / direct=3 / weightb=1 / open_gop=0 / weightp=2 / keyint=250 / keyint_min=23 / scenecut=40 / intra_refresh=0 / rc_lookahead=60 / rc=crf / mbtree=1 / crf=16.0 / qcomp=0.70 / qpmin=0 / qpmax=69 / qpstep=4 / vbv_maxrate=40000 / vbv_bufsize=30000 / crf_max=0.0 / nal_hrd=none / filler=0 / frame-packing=4 / ip_ratio=1.40 / aq=1:0.70
Language : Chinese
Default : Yes
Forced : No
Audio #1
ID : 2
Format : AC-3
Format/Info : Audio Coding 3
Mode extension : CM (complete main)
Format settings, Endianness : Big
Codec ID : A_AC3
Duration : 2h 23mn
Bit rate mode : Constant
Bit rate : 640 Kbps
Channel(s) : 6 channels
Channel positions : Front: L C R, Side: L R, LFE
Sampling rate : 48.0 KHz
Bit depth : 16 bits
Compression mode : Lossy
Stream size : 655 MiB (3%)
Title : Одноголосый закадровый - В.Сергеев
Language : Russian
Default : Yes
Forced : No
Audio #2
ID : 3
Format : AC-3
Format/Info : Audio Coding 3
Mode extension : CM (complete main)
Format settings, Endianness : Big
Codec ID : A_AC3
Duration : 2h 23mn
Bit rate mode : Constant
Bit rate : 640 Kbps
Channel(s) : 6 channels
Channel positions : Front: L C R, Side: L R, LFE
Sampling rate : 48.0 KHz
Bit depth : 16 bits
Compression mode : Lossy
Stream size : 655 MiB (3%)
Title : Original - BD 3D
Language : Chinese
Default : No
Forced : No
Menu
00:00:00.000 : :1
00:10:51.232 : :2
00:19:12.025 : :3
00:25:58.890 : :4
00:35:53.400 : :5
00:46:07.054 : :6
00:56:05.235 : :7
01:03:09.702 : :8
01:13:55.180 : :9
01:22:26.483 : :10
01:39:29.212 : :11
01:47:33.529 : :12
01:51:45.323 : :13
01:59:56.771 : :14
02:09:30.345 : :15
02:14:43.449 : :16

Для оценки 3Д - Анимированные скрины















[Профиль] [ЛС]
Кто просматривает тему:

Форум Тема Автор Размер
BBC BBC: Захватывающая история криминалистики / Catching History's Criminals: The Forensics Story [сезон 1 серии 1-3 из 3] (Graham Russel) [2015 г., Документальный, история, криминалистика, HDTVRip... skorpionN 3.65 GB
Отечественные cериалы Захват / Серии 1-8 (Эльдар Салаватов) [2014 г., Детектив, SATRip] Pensioner 4.69 GB
Фильмы (HD Rips | 720p, 1080p) Захват горы тигра / The Taking of Tiger Mountain (2014) BDRip 720p | L1 достали все 8.33 GB
Фильмы 2014 года Захват горы тигра / The Taking of Tiger Mountain (2014) HDRip | L1 достали все 2.75 GB
Зарубежные Захват горы тигра в 3Д / Zhì qu weihu shan / The Taking of Tiger Mountain 3D (Цуй Харк / Tsui Hark) [2014, Китай, Гонконг, Боевик, Мелодрама, Комедия, Blu-ray Remux 1080p] BD3D TorrentFilm 40.12 GB
Фильмы (HD DVD, Blu-ray и BDRemux) Захватывающее время / The Spectacular Now (2013) BDRemux 1080p sergej644 29.67 GB
Фильмы (HD Rips | 720p, 1080p) Захватывающее время / The Spectacular Now (2013) BDRip 720p | iTunes sergej644 6.56 GB
Фильмы 2014 года Захваченный / Piege (2014) HDRip | L1 sergej644 1.37 GB
Показать сообщения:    

Текущее время: Сегодня 18:20

Часовой пояс: GMT



Вы не можете начинать темы
Вы не можете отвечать на сообщения
Вы не можете редактировать свои сообщения
Вы не можете удалять свои сообщения
Вы не можете голосовать в опросах
Вы не можете прикреплять файлы к сообщениям
Вы не можете скачивать файлы