Заточенные кепки / Острые козырьки / Peaky Blinders [S02] (2014) BDRip 720p от qqss44 | LostFilm, AlexFilm, Кубик в Кубе

 
Автор Сообщение

Белочка ®

Пол:

Стаж: 5 лет 1 месяц

Сообщений: 2089



Награды: 1 (Подробнее)

Girls (Количество: 1)
Торрент-статистика

Создавать темы 24-Дек-2014 17:32

[Цитировать]

-"ЗАТОЧЕННЫЕ КЕПКИ"- Информация о фильме:
Название: Заточенные кепки / Острые козырьки
Оригинальное название: Peaky Blinders
Год выхода: 2014
Жанр: драма, криминал
Режиссер: Отто Баферст, Том Харпер
В ролях: Киллиан Мерфи, Пол Андерсон, Иддо Голдберг, Хелен МакКрори, Сэм Нилл, Аннабелль Уоллис, Джо Коул, Элфи Эванс-Мис, Джек Хартли, Кевин Меткалф

Описание фильма:
Британский сериал о криминальном мире Бирмингема 20-х годов прошлого века, в котором многолюдная семья Шелби стала одной из самых жестоких и влиятельных гангстерских банд послевоенного времени. Фирменным знаком группировки, промышлявшей грабежами и азартными играми, стали зашитые в козырьки лезвия.

Страна: Великобритания
Продолжительность: ~ 00:58:00 серия
Перевод: Профессиональный (многоголосый, закадровый)
- LostFilm
Перевод: Профессиональный (многоголосый, закадровый) - AlexFilm
Перевод: Профессиональный (двухголосый, закадровый) - Кубик в Кубе

Информация о файле:
Кодек: h.264
Формат: mkv
Качество: BDRip 720p (DON)
Видео: ~ 10000 kbps, 1280x692
Аудио Rus: AC3, 2 ch, 384 kbps / LostFilm
Аудио Rus: AC3, 2 ch, 192 kbps / AlexFilm, Кубик в Кубе
Аудио Eng: AC3, 2 ch, 384 kbps / Original
Субтитры: Русские, английские
-

[color=#25313c]Скриншоты[/color]

-

[color=#25313c]МИ[/color]

Общее
Уникальный идентификатор : 247871000581074305084781499353254113424 (0xBA7A37DE57C0EC2383A9EB97AA58B090)
Полное имя : X:Peaky.Blinders.(S02).720p.BluRay.3xRus.Eng.SubsPeaky.Blinders.s02e01.720p.BluRay.3xRus.Eng.Subs.[qqss44].mkv
Формат : Matroska
Версия формата : Version 2
Размер файла : 4,59 Гбайт
Продолжительность : 58 м.
Общий поток : 11,2 Мбит/сек
Дата кодирования : UTC 2014-12-21 22:23:40
Программа кодирования : mkvmerge v7.2.0 ('On Every Street') 64bit built on Sep 13 2014 15:52:10
Библиотека кодирования : libebml v1.3.0 + libmatroska v1.4.1
DURATION : 00:58:55.072000000
NUMBER_OF_FRAMES : 110471
NUMBER_OF_BYTES : 169683456
_STATISTICS_WRITING_APP : mkvmerge v7.2.0 ('On Every Street') 64bit built on Sep 13 2014 15:52:10
_STATISTICS_WRITING_DATE_UTC : 2014-12-21 22:23:40
_STATISTICS_TAGS : BPS DURATION NUMBER_OF_FRAMES NUMBER_OF_BYTES
Видео
Идентификатор : 1
Формат : AVC
Формат/Информация : Advanced Video Codec
Профиль формата : High@L4.1
Параметр CABAC формата : Да
Параметр ReFrames формата : 9 кадров
Идентификатор кодека : V_MPEG4/ISO/AVC
Продолжительность : 58 м.
Битрейт : 10000 Кбит/сек
Ширина : 1280 пикселей
Высота : 692 пикселя
Соотношение сторон : 1,85:1
Режим частоты кадров : Постоянный
Частота кадров : 25,000 кадров/сек
Цветовое пространство : YUV
Субдискретизация насыщенности : 4:2:0
Битовая глубина : 8 бит
Тип развёртки : Прогрессивная
Бит/(Пиксели*Кадры) : 0.452
Размер потока : 4,02 Гбайт (88%)
Библиотека кодирования : x264 core 142 r2491kMod 24e4fed
Настройки программы : cabac=1 / ref=9 / deblock=1:-3:-3 / analyse=0x3:0x113 / me=umh / subme=11 / psy=1 / fade_compensate=0.00 / psy_rd=1.05:0.00 / mixed_ref=1 / me_range=32 / chroma_me=1 / trellis=2 / 8x8dct=1 / cqm=0 / deadzone=21,11 / fast_pskip=0 / chroma_qp_offset=-4 / threads=12 / lookahead_threads=2 / sliced_threads=0 / nr=0 / decimate=1 / interlaced=0 / bluray_compat=0 / constrained_intra=0 / fgo=0 / bframes=9 / b_pyramid=2 / b_adapt=2 / b_bias=0 / direct=3 / weightb=1 / open_gop=0 / weightp=2 / keyint=240 / keyint_min=24 / scenecut=40 / intra_refresh=0 / rc_lookahead=60 / rc=2pass / mbtree=0 / bitrate=10000 / ratetol=1.0 / qcomp=0.70 / qpmin=0 / qpmax=69 / qpstep=4 / cplxblur=20.0 / qblur=0.5 / vbv_maxrate=50000 / vbv_bufsize=62500 / nal_hrd=none / filler=0 / ip_ratio=1.40 / pb_ratio=1.30 / aq=3:0.80 / zones=1418,1504,b=1.3/1831,1931,b=1.3/2418,2482,b=1.6/10279,10397,b=1.3/11681,11763,b=1.3/11892,11954,b=1.3/12018,12147,b=1.3/12215,12320,b=1.3/44203,44464,b=1.3/47040,47176,b=1.3/55921,56153,b=1.3/56457,56544,b=1.3/63318,63558,b=1.3/66615,66657,b=1.3/66685,66759,b=1.3/66844,67004,b=1.3/67392,67426,b=1.3/67468,67571,b=1.3/68596,68671,b=1.3/68834,68930,b=1.3/69439,69450,b=1.3/76493,76634,b=1.5/76850,77203,b=1.2/78033,78079,b=1.3/78900,78908,b=1.3/81703,81759,b=1.5/82605,82771,b=1.3/82825,82851,b=1.3/82859,83042,b=1.3/83390,83424,b=1.3/83503,83716,b=1.3/83812,83831,b=1.3/83948,84110,b=1.3/84526,84632,b=1.3/86037,86087,b=1.2/86618,86689,b=1.3
Язык : English
Default : Да
Forced : Нет
DURATION : 00:58:55.040000000
NUMBER_OF_FRAMES : 88376
NUMBER_OF_BYTES : 4417715562
_STATISTICS_WRITING_APP : mkvmerge v7.2.0 ('On Every Street') 64bit built on Sep 13 2014 15:52:10
_STATISTICS_WRITING_DATE_UTC : 2014-12-21 22:23:40
_STATISTICS_TAGS : BPS DURATION NUMBER_OF_FRAMES NUMBER_OF_BYTES
Аудио #1
Идентификатор : 2
Формат : AC-3
Формат/Информация : Audio Coding 3
Расширение режима : CM (complete main)
Параметр Endianness формата : Big
Идентификатор кодека : A_AC3
Продолжительность : 58 м.
Вид битрейта : Постоянный
Битрейт : 384 Кбит/сек
Каналы : 2 канала
Расположение каналов : Front: L R
Частота : 48,0 КГц
Битовая глубина : 16 бит
Метод сжатия : С потерями
Размер потока : 162 Мбайт (3%)
Заголовок : LostFilm
Язык : Russian
Default : Да
Forced : Нет
Аудио #2
Идентификатор : 3
Формат : AC-3
Формат/Информация : Audio Coding 3
Расширение режима : CM (complete main)
Параметр Endianness формата : Big
Идентификатор кодека : A_AC3
Продолжительность : 58 м.
Вид битрейта : Постоянный
Битрейт : 192 Кбит/сек
Каналы : 2 канала
Расположение каналов : Front: L R
Частота : 48,0 КГц
Битовая глубина : 16 бит
Метод сжатия : С потерями
Размер потока : 80,9 Мбайт (2%)
Заголовок : AlexFilm
Язык : Russian
Default : Нет
Forced : Нет
Аудио #3
Идентификатор : 4
Формат : AC-3
Формат/Информация : Audio Coding 3
Расширение режима : CM (complete main)
Параметр Endianness формата : Big
Идентификатор кодека : A_AC3
Продолжительность : 58 м.
Вид битрейта : Постоянный
Битрейт : 192 Кбит/сек
Каналы : 2 канала
Расположение каналов : Front: L R
Частота : 48,0 КГц
Битовая глубина : 16 бит
Метод сжатия : С потерями
Размер потока : 80,9 Мбайт (2%)
Заголовок : Кубик в кубе
Язык : Russian
Default : Нет
Forced : Нет
Аудио #4
Идентификатор : 5
Формат : AC-3
Формат/Информация : Audio Coding 3
Расширение режима : CM (complete main)
Параметр Endianness формата : Big
Идентификатор кодека : A_AC3
Продолжительность : 58 м.
Вид битрейта : Постоянный
Битрейт : 384 Кбит/сек
Каналы : 2 канала
Расположение каналов : Front: L R
Частота : 48,0 КГц
Битовая глубина : 16 бит
Метод сжатия : С потерями
Размер потока : 162 Мбайт (3%)
Язык : English
Default : Нет
Forced : Нет
Текст #1
Идентификатор : 6
Формат : UTF-8
Идентификатор кодека : S_TEXT/UTF8
Идентификатор кодека/Информация : UTF-8 Plain Text
Язык : Russian
Default : Нет
Forced : Нет
Текст #2
Идентификатор : 7
Формат : UTF-8
Идентификатор кодека : S_TEXT/UTF8
Идентификатор кодека/Информация : UTF-8 Plain Text
Язык : English
Default : Нет
Forced : Нет
Меню
00:00:00.000 : en:00:00:00.000
00:07:26.000 : en:00:07:26.000
00:14:37.120 : en:00:14:37.120
00:20:43.720 : en:00:20:43.720
00:29:04.880 : en:00:29:04.880
00:36:02.040 : en:00:36:02.040
00:42:06.440 : en:00:42:06.440
00:48:19.160 : en:00:48:19.160
-
[Профиль] [ЛС]
Показать сообщения:    

Текущее время: Сегодня 16:57

Часовой пояс: GMT



Вы не можете начинать темы
Вы не можете отвечать на сообщения
Вы не можете редактировать свои сообщения
Вы не можете удалять свои сообщения
Вы не можете голосовать в опросах
Вы не можете прикреплять файлы к сообщениям
Вы не можете скачивать файлы