Затмение / Regression (2015) BDRip 1080p | iTunes

 
Автор Сообщение

BOSS ®

Пол:

Стаж: 2 года 1 месяц

Сообщений: 3718

Откуда: ODESSA



Награды: 20 (Подробнее)

Top Seeder 3 (Количество: 1) Top Keeper 2 (Количество: 1) Top Seeder 2 (Количество: 1)
Торрент-статистика

Создавать темы 15-Мар-2016 05:43

[Цитировать]

Производство: Испания, Канада / FilmNation Entertainment, First Generation Films, Himenóptero
Жанр: триллер, драма, криминал, детектив
Режиссер: Алехандро Аменабар
Продюсер: Алехандро Аменабар, Фернандо Бовайра, Кристина Пиовесан
Актеры: Эмма Уотсон, Итан Хоук, Дэвид Тьюлис, Девон Бостик, Аарон Эшмор, Дейл Дикки, Давид Денсик, Аарон Абрамс, Кристиан Бруун, Адам Батчер
Описание:
В ходе расследования дела Анджелы Грей детектив Брюс Киннер вынужден обратиться к психологу для выявления ее подавленных воспоминаний. Сеанс регрессивного гипноза открывает ужасающие факты — по ночам с согласия отца над девушкой проводились сатанинские ритуалы. Желая защитить девушку от преследования зловещего тайного общества, детектив оказывается втянут в пугающий мир оккультизма. То, что ему противостоит, находится за гранью понимания и способно бросить вызов его убеждениям и вере.

Рейтинг MPAA: R (лицам до 17 лет обязательно присутствие взрослого)
Дата мировой премьеры: 18 сентября 2015
Дата российской премьеры: 4 февраля 2016, «Вольга»
Продолжительность: 01:46:04
Качество: BDRip 1080p
Перевод: Дублированный (iTunes)
Вид субтитров: Вшитые, отключаемые
Язык субтитров: Русский, Английский
Видео: AVC/H.264, 1920x802, (2.40:1), 15.2 Mbps, 23,976 fps
Аудио: AC3, 6 ch, 384 kbps - Русский
Аудио: DTS, 6 ch, 1509 kbps - Английский

MediaInfo:

Complete name : D:РАЗДАЧИRegression (2015) BDRip 1080p.mkv
Format : Matroska
Format version : Version 2
File size : 13.0 GiB
Duration : 1h 46mn
Overall bit rate : 17.5 Mbps
Movie name : Regression (2015) BDRip 1080p
Encoded date : UTC 2016-03-10 20:06:47
Writing application : mkvmerge v3.0.0 ('Hang up your Hang-Ups') built on Dec 12 2009 15:20:35
Writing library : libebml v0.7.9 + libmatroska v0.8.1
Cover : Yes
Attachments : cover.png
Video
ID : 1
Format : AVC
Format/Info : Advanced Video Codec
Format profile : High@L4.1
Format settings, CABAC : Yes
Format settings, ReFrames : 5 frames
Codec ID : V_MPEG4/ISO/AVC
Duration : 1h 46mn
Bit rate : 15.2 Mbps
Width : 1 920 pixels
Height : 802 pixels
Display aspect ratio : 2.40:1
Frame rate mode : Constant
Frame rate : 23.976 (24000/1001) fps
Color space : YUV
Chroma subsampling : 4:2:0
Bit depth : 8 bits
Scan type : Progressive
Bits/(Pixel*Frame) : 0.413
Stream size : 11.3 GiB (87%)
Writing library : x264 core 146 r2538 121396c
Encoding settings : cabac=1 / ref=5 / deblock=1:-3:-3 / analyse=0x3:0x133 / me=umh / subme=11 / psy=1 / psy_rd=1.00:0.00 / mixed_ref=1 / me_range=32 / chroma_me=1 / trellis=2 / 8x8dct=1 / cqm=0 / deadzone=21,11 / fast_pskip=0 / chroma_qp_offset=-2 / threads=48 / lookahead_threads=6 / sliced_threads=0 / nr=0 / decimate=0 / interlaced=0 / bluray_compat=0 / constrained_intra=0 / bframes=9 / b_pyramid=2 / b_adapt=2 / b_bias=0 / direct=3 / weightb=1 / open_gop=0 / weightp=2 / keyint=240 / keyint_min=23 / scenecut=40 / intra_refresh=0 / rc_lookahead=150 / rc=crf / mbtree=0 / crf=14.8 / qcomp=0.60 / qpmin=0 / qpmax=69 / qpstep=4 / vbv_maxrate=62500 / vbv_bufsize=78125 / crf_max=0.0 / nal_hrd=none / filler=0 / ip_ratio=1.40 / pb_ratio=1.30 / aq=1:0.80
Default : No
Forced : No
Audio #1
ID : 2
Format : AC-3
Format/Info : Audio Coding 3
Mode extension : CM (complete main)
Format settings, Endianness : Big
Codec ID : A_AC3
Duration : 1h 46mn
Bit rate mode : Constant
Bit rate : 384 Kbps
Channel(s) : 6 channels
Channel positions : Front: L C R, Side: L R, LFE
Sampling rate : 48.0 KHz
Frame rate : 31.250 fps (1536 spf)
Compression mode : Lossy
Stream size : 291 MiB (2%)
Title : iTunes
Language : Russian
Default : Yes
Forced : No
Audio #2
ID : 3
Format : DTS
Format/Info : Digital Theater Systems
Mode : 16
Format settings, Endianness : Big
Codec ID : A_DTS
Duration : 1h 46mn
Bit rate mode : Constant
Bit rate : 1 509 Kbps
Channel(s) : 6 channels
Channel positions : Front: L C R, Side: L R, LFE
Sampling rate : 48.0 KHz
Frame rate : 93.750 fps (512 spf)
Bit depth : 24 bits
Compression mode : Lossy
Stream size : 1.12 GiB (9%)
Title : Original
Language : English
Default : No
Forced : No
Text #1
ID : 4
Format : UTF-8
Codec ID : S_TEXT/UTF8
Codec ID/Info : UTF-8 Plain Text
Title : Russian
Language : Russian
Default : No
Forced : No
Text #2
ID : 5
Format : UTF-8
Codec ID : S_TEXT/UTF8
Codec ID/Info : UTF-8 Plain Text
Title : English
Language : English
Default : No
Forced : No
Menu
00:00:00.000 : en:Chapter 1
00:12:13.608 : en:Chapter 2
00:19:55.528 : en:Chapter 3
00:29:56.169 : en:Chapter 4
00:39:52.098 : en:Chapter 5
00:48:11.388 : en:Chapter 6
00:57:51.760 : en:Chapter 7
01:09:43.137 : en:Chapter 8
01:16:52.942 : en:Chapter 9
01:23:58.450 : en:Chapter 10
01:30:00.979 : en:Chapter 11
01:36:06.552 : en:Chapter 12
Скриншоты:

Время раздачи: 24/7
[Профиль] [ЛС]
Показать сообщения:    

Текущее время: Сегодня 14:35

Часовой пояс: GMT



Вы не можете начинать темы
Вы не можете отвечать на сообщения
Вы не можете редактировать свои сообщения
Вы не можете удалять свои сообщения
Вы не можете голосовать в опросах
Вы не можете прикреплять файлы к сообщениям
Вы не можете скачивать файлы