Затмение / Regression (2015) BDRip 1080p | iTunes

 
Автор Сообщение

BOSS ®

Пол:

Стаж: 2 года 1 месяц

Сообщений: 3735

Откуда: ODESSA



Награды: 20 (Подробнее)

Top Releaser 3 (Количество: 1) Mega Releaser 2 (Количество: 1) Mega Seeder 1 (Количество: 1)
Торрент-статистика

Создавать темы 10-Мар-2016 17:00

[Цитировать]

Информация о фильме
Название: Затмение
Оригинальное название: Regression
Год выхода: 2015
Жанр: ужасы, триллер, детектив
Режисер: Алехандро Аменабар
В ролях: Эмма Уотсон, Итэн Хоук, Дэвид Тьюлис, Девон Бостик, Аарон Эшмор, Дейл Дикки, Давид Денсик, Адам Батчер, Кристиан Бруун
Описание:
В ходе расследования дела Анджелы Грей детектив Брюс Киннер вынужден обратиться к психологу для выявления ее подавленных воспоминаний. Сеанс регрессивного гипноза открывает ужасающие факты — по ночам с согласия отца над девушкой проводились сатанинские ритуалы. Желая защитить девушку от преследования зловещего тайного общества, детектив оказывается втянут в пугающий мир оккультизма. То, что ему противостоит, находится за гранью понимания и способно бросить вызов его убеждениям и вере.

Выпущено: Испания, Канада
Продолжительность: 01:46:00
Перевод: Дублированный [iTunes]
Формат: MKV
Качество: BDRip 1080p
Видео: 8816 Кбит/с, 1920x808
Аудио: Русский (AC3, 6 ch, 384 Кбит/с), английский (DTS, 6 ch, 1510 Кбит/с)
Субтитры: Английские

Скриншоты

MediaInfo

General
Unique ID : 214832748771122699166950432852245935646 (0xA19F484AAAD3FA4EAF5A726A98B2F61E)
Complete name : D:Видео3ATMEHUE.2015.BDRip.1080p.mkv
Format : Matroska
Format version : Version 4 / Version 2
File size : 7.94 GiB
Duration : 1h 46mn
Overall bit rate : 10.7 Mbps
Movie name : 3ATMEHUE.2015.BDRip.1080p
Encoded date : UTC 2016-03-10 00:22:22
Writing application : mkvmerge v8.3.0 ('Over the Horizon') 64bit
Writing library : libebml v1.3.1 + libmatroska v1.4.2
DURATION : 01:46:04.608000000
NUMBER_OF_FRAMES : 198894
NUMBER_OF_BYTES : 305501184
_STATISTICS_WRITING_APP : mkvmerge v8.3.0 ('Over the Horizon') 64bit
_STATISTICS_WRITING_DATE_UTC : 2016-03-10 00:22:22
_STATISTICS_TAGS : BPS DURATION NUMBER_OF_FRAMES NUMBER_OF_BYTES
Video
ID : 1
Format : AVC
Format/Info : Advanced Video Codec
Format profile : High@L4.1
Format settings, CABAC : Yes
Format settings, ReFrames : 5 frames
Codec ID : V_MPEG4/ISO/AVC
Duration : 1h 46mn
Bit rate : 8 816 Kbps
Width : 1 920 pixels
Height : 808 pixels
Display aspect ratio : 2.40:1
Frame rate mode : Constant
Frame rate : 23.976 fps
Color space : YUV
Chroma subsampling : 4:2:0
Bit depth : 8 bits
Scan type : Progressive
Bits/(Pixel*Frame) : 0.237
Stream size : 6.38 GiB (80%)
Writing library : x264 core 148 r2638 7599210
Encoding settings : cabac=1 / ref=5 / deblock=1:-3:-3 / analyse=0x3:0x113 / me=umh / subme=8 / psy=1 / psy_rd=1.00:0.00 / mixed_ref=1 / me_range=16 / chroma_me=1 / trellis=1 / 8x8dct=1 / cqm=0 / deadzone=21,11 / fast_pskip=1 / chroma_qp_offset=-2 / threads=12 / lookahead_threads=2 / sliced_threads=0 / nr=0 / decimate=1 / interlaced=0 / bluray_compat=0 / constrained_intra=0 / bframes=3 / b_pyramid=2 / b_adapt=2 / b_bias=0 / direct=3 / weightb=1 / open_gop=0 / weightp=2 / keyint=240 / keyint_min=24 / scenecut=40 / intra_refresh=0 / rc_lookahead=50 / rc=2pass / mbtree=1 / bitrate=8816 / ratetol=1.0 / qcomp=0.60 / qpmin=0 / qpmax=69 / qpstep=4 / cplxblur=20.0 / qblur=0.5 / ip_ratio=1.40 / aq=1:1.00
Language : English
Default : No
Forced : No
DURATION : 01:46:04.567000000
NUMBER_OF_FRAMES : 152597
NUMBER_OF_BYTES : 7013093252
_STATISTICS_WRITING_APP : mkvmerge v8.3.0 ('Over the Horizon') 64bit
_STATISTICS_WRITING_DATE_UTC : 2016-03-10 00:22:22
_STATISTICS_TAGS : BPS DURATION NUMBER_OF_FRAMES NUMBER_OF_BYTES
Audio #1
ID : 2
Format : AC-3
Format/Info : Audio Coding 3
Mode extension : CM (complete main)
Format settings, Endianness : Big
Codec ID : A_AC3
Duration : 1h 46mn
Bit rate mode : Constant
Bit rate : 384 Kbps
Channel(s) : 6 channels
Channel positions : Front: L C R, Side: L R, LFE
Sampling rate : 48.0 KHz
Bit depth : 16 bits
Compression mode : Lossy
Stream size : 291 MiB (4%)
Title : DUB
Language : Russian
Default : Yes
Forced : No
DURATION : 01:46:04.150000000
NUMBER_OF_FRAMES : 596639
NUMBER_OF_BYTES : 1200437668
_STATISTICS_WRITING_APP : mkvmerge v8.3.0 ('Over the Horizon') 64bit
_STATISTICS_WRITING_DATE_UTC : 2016-03-10 00:22:22
_STATISTICS_TAGS : BPS DURATION NUMBER_OF_FRAMES NUMBER_OF_BYTES
Audio #2
ID : 3
Format : DTS
Format/Info : Digital Theater Systems
Mode : 16
Format settings, Endianness : Big
Codec ID : A_DTS
Duration : 1h 46mn
Bit rate mode : Constant
Bit rate : 1 509 Kbps
Channel(s) : 6 channels
Channel positions : Front: L C R, Side: L R, LFE
Sampling rate : 48.0 KHz
Bit depth : 24 bits
Compression mode : Lossy
Stream size : 1.12 GiB (14%)
Language : English
Default : No
Forced : No
Text
ID : 4
Format : PGS
Muxing mode : zlib
Codec ID : S_HDMV/PGS
Codec ID/Info : The same subtitle format used on BDs/HD-DVDs
Title : English-PGS
Language : English
Default : No
Forced : No
DURATION : 01:37:47.028000000
NUMBER_OF_FRAMES : 2160
NUMBER_OF_BYTES : 8705934
_STATISTICS_WRITING_APP : mkvmerge v8.3.0 ('Over the Horizon') 64bit
_STATISTICS_WRITING_DATE_UTC : 2016-03-10 00:22:22
_STATISTICS_TAGS : BPS DURATION NUMBER_OF_FRAMES NUMBER_OF_BYTES
Menu
00:00:00.000 : en:00:00:00.000
00:12:13.608 : en:00:12:13.608
00:19:55.528 : en:00:19:55.528
00:29:56.169 : en:00:29:56.169
00:39:52.098 : en:00:39:52.098
00:48:11.388 : en:00:48:11.388
00:57:51.760 : en:00:57:51.760
01:09:43.137 : en:01:09:43.137
01:16:52.942 : en:01:16:52.942
01:23:58.450 : en:01:23:58.450
01:30:00.979 : en:01:30:00.979
01:36:06.552 : en:01:36:06.552
[Профиль] [ЛС]
Показать сообщения:    

Текущее время: Сегодня 16:27

Часовой пояс: GMT



Вы не можете начинать темы
Вы не можете отвечать на сообщения
Вы не можете редактировать свои сообщения
Вы не можете удалять свои сообщения
Вы не можете голосовать в опросах
Вы не можете прикреплять файлы к сообщениям
Вы не можете скачивать файлы