Затерянный остров / L'ile (2011) HDRip | P

 
Автор Сообщение

Russian Mafia ®

Пол:

Стаж: 1 год 8 месяцев

Сообщений: 4246



Награды: 10 (Подробнее)

Top Releaser 3 (Количество: 1) Mega Seeder 4 (Количество: 1) Mega Seeder 2 (Количество: 1)
Торрент-статистика

Создавать темы 22-Мар-2016 17:05

[Цитировать]

Информация о фильме
Название: Затерянный остров
Оригинальное название: L'ile
Год выхода: 2011
Жанр: Фантастика, приключения
Режиссер: Оливье Буалло / Olivier Boillot
В ролях: Мишель Беатри, Сирьель Дебрей, Поль Декомб, Каддор Доргам, Жереми Дюпло младший
О фильме: 1942 год. Военный самолёт терпит крушение и падает в Атлантический океан. Выжившие члены экипажа спасаются на шлюпке, которую прибивает к берегу. Лётчики оказываются на острове. Спустя некоторое время они находят заброшенный туннель и через него попадают в совершенно другой мир...

Страна: Франция, Реюньон
Студия: Ileprod
Продолжительность: 01:30:38
Перевод: Профессиональный (многоголосый, закадровый) - СТС
Файл
Формат: avi
Качество: HDRip (BDRip.1080p)
Видео: XviD, 656x368, 25fps, 1010kbps
Аудио: MPEG Layer 3, 2ch, 48000Hz, 128kbps

MediaInfo

General
Complete name : Zaterannyi.Ostrov.2011.P.HDRip.700.CurHaJI.avi
Format : AVI
Format/Info : Audio Video Interleave
File size : 744 MiB
Duration : 1h 30mn
Overall bit rate : 1 148 Kbps
Movie name : Zaterannyi.Ostrov.2011.P.HDRip.700.CurHaJI
Writing library : VirtualDub build 35491/release
Video
ID : 0
Format : MPEG-4 Visual
Format profile : Advanced Simple@L5
Format settings, BVOP : 1
Format settings, QPel : No
Format settings, GMC : No warppoints
Format settings, Matrix : Custom
Codec ID : XVID
Codec ID/Hint : XviD
Duration : 1h 30mn
Bit rate : 1 010 Kbps
Width : 656 pixels
Height : 368 pixels
Display aspect ratio : 16:9
Frame rate : 25.000 fps
Color space : YUV
Chroma subsampling : 4:2:0
Bit depth : 8 bits
Scan type : Progressive
Compression mode : Lossy
Bits/(Pixel*Frame) : 0.167
Stream size : 655 MiB (88%)
Writing library : XviD 73
Audio
ID : 1
Format : MPEG Audio
Format version : Version 1
Format profile : Layer 3
Codec ID : 55
Codec ID/Hint : MP3
Duration : 1h 30mn
Bit rate mode : Constant
Bit rate : 128 Kbps
Channel(s) : 2 channels
Sampling rate : 48.0 KHz
Compression mode : Lossy
Stream size : 83.0 MiB (11%)
Alignment : Split accross interleaves
Interleave, duration : 40 ms (1.00 video frame)
Interleave, preload duration : 500 ms
Writing library : LAME3.99r
Encoding settings : -m s -V 4 -q 2 -lowpass 17 -b 128

Скриншоты

Релиз от:
[Профиль] [ЛС]
Кто просматривает тему:

Форум Тема Автор Размер
Альтернативная история и наука BBC. Древние затерянные города. Исчезнувшая столица фараона / Lost Cities of the Ancients. The Vanished Capital of the Pharaoh (2006) HDTV [H.264/1080i-LQ] KottoSoft 2.43 GB
National Geographic NG: Исследователь 2.0: Проклятие затерянного города: Легенда о "Городе обезьяньего бога" / Explorer. Legend of the monkey God [сезон 8 эпизод 02] (Graham Townsley) [2015 г., Документальный,... skorpionN 1.44 GB
PBS PBS: Тайны Мертвых. Затерянный в Амазонке / Secrets of the Dead. Lost in the Amazon [сезон 11 эпизод 1 ] (Петер Вон Путткамер / Peter Von Puttkamer) [2011 г., Документальный, познавательный, история,... skorpionN 1.47 GB
Viasat History Viasat History: Затерянный мир Александра Великого (1-6 серии из 6) / Alexander’s Lost World (Девид Адамс / David Adams) [2013, Документальный, альтернативная история, псевдоистория HDTVRip 720p] TorrentFilm 9.4 GB
Фильмы 2016 года Затерянные в Тихом океане / Lost in the Pacific (2016) WEBRip | L BOSS 1.37 GB
Приключения, Квесты, Логические Затерянные земли 3: Проклятое золото. Коллекционное издание (2016) PC достали все 1.11 GB
Приключения, Квесты, Логические Затерянный остров. Вечный шторм (2015) PC достали все 244 MB
Фильмы (HD DVD, Blu-ray и BDRemux) Один дома 2: Затерянный в Нью-Йорке / Home Alone 2: Lost in New York (1992) BDRemux 1080p sergej644 32.27 GB
Показать сообщения:    

Текущее время: Сегодня 11:57

Часовой пояс: GMT



Вы не можете начинать темы
Вы не можете отвечать на сообщения
Вы не можете редактировать свои сообщения
Вы не можете удалять свои сообщения
Вы не можете голосовать в опросах
Вы не можете прикреплять файлы к сообщениям
Вы не можете скачивать файлы