Заставь меня содрогнуться / Mo 6/5 pak ma tha phi (2013) BDRip 720p

 
Автор Сообщение

Russian Mafia ®

Пол:

Стаж: 1 год 8 месяцев

Сообщений: 4257



Награды: 10 (Подробнее)

Mega Seeder 2 (Количество: 1) Mega Seeder 3 (Количество: 1) Mega Seeder 4 (Количество: 1)
Торрент-статистика

Создавать темы 03-Авг-2016 15:00

[Цитировать]

Информация о фильме
Название: Заставь меня содрогнуться
Оригинальное название: Mo 6/5 pak ma tha phi
Год выхода: 2013
Жанр: ужасы, комедия
Режиссер: Пой Арнон
В ролях: Кунатип Пинпрадуб, Киттипат Самарнтрагулчай, Ворочай Сириконгсуван, Риттичай Тасарика, Пувадол Вечвонгса
О фильме: История о группе студентов, которые любят искать и призывать духов. Однажды их бесстрашие сводит их с настоящим призраком…

Выпущено: Phranakorn Film
Продолжительность: 01:44:08
Перевод: Авторский (А.Карповский)
Файл
Кодек: x264
Качество: BDRip (источник: Blu-ray Disc)
Видео: 1280x544 (2,35:1), 23.976 fps, 3550 kbps
Аудио #1: AC-3, 6 ch, 448 kbps (Одноголосый закадровый, А.Карповский)
Аудио #2: AC-3, 6 ch, 448 kbps (Original)
Скачать: сэмпл
Скриншоты

MI

Общее
Уникальный идентификатор : 246678698745977278577599144903429474573 (0xB99496D976C143D9A463059AA50A490D)
Полное имя : Make.Me.Shudder.2013.BDRip.720p.Rus.Tha.mkv
Формат : Matroska
Версия формата : Version 2
Размер файла : 3,23 Гбайт
Продолжительность : 1 ч. 44 м.
Общий поток : 4447 Кбит/сек
Название фильма : Заставь меня содрогнуться / Mo 6/5 pak ma tha phi (2013)
Дата кодирования : UTC 2014-09-03 03:10:16
Программа кодирования : mkvmerge v5.8.0 ('No Sleep / Pillow') built on Sep 2 2012 15:37:04
Библиотека кодирования : libebml v1.2.3 + libmatroska v1.3.0
Видео
Идентификатор : 1
Формат : AVC
Формат/Информация : Advanced Video Codec
Профиль формата : High@L4.1
Параметр CABAC формата : Да
Параметр ReFrames формата : 11 кадров
Идентификатор кодека : V_MPEG4/ISO/AVC
Продолжительность : 1 ч. 44 м.
Битрейт : 3549 Кбит/сек
Ширина : 1280 пикселей
Высота : 544 пикселя
Соотношение сторон : 2,35:1
Режим частоты кадров : Постоянный
Частота кадров : 23,976 кадра/сек
Цветовое пространство : YUV
Субдискретизация насыщенности : 4:2:0
Битовая глубина : 8 бит
Тип развёртки : Прогрессивная
Бит/(Пиксели*Кадры) : 0.213
Размер потока : 2,52 Гбайт (78%)
Заголовок : Release by AlexKa
Библиотека кодирования : x264 core 142 r2453 ea0ca51
Настройки программы : cabac=1 / ref=11 / deblock=1:-3:-3 / analyse=0x3:0x133 / me=umh / subme=11 / psy=1 / psy_rd=1.00:0.00 / mixed_ref=1 / me_range=32 / chroma_me=1 / trellis=2 / 8x8dct=1 / cqm=0 / deadzone=21,11 / fast_pskip=0 / chroma_qp_offset=-2 / threads=12 / lookahead_threads=2 / sliced_threads=0 / nr=0 / decimate=0 / interlaced=0 / bluray_compat=0 / constrained_intra=0 / bframes=9 / b_pyramid=2 / b_adapt=2 / b_bias=0 / direct=3 / weightb=1 / open_gop=0 / weightp=2 / keyint=240 / keyint_min=23 / scenecut=40 / intra_refresh=0 / rc=2pass / mbtree=0 / bitrate=3549 / ratetol=1.0 / qcomp=0.60 / qpmin=0 / qpmax=69 / qpstep=4 / cplxblur=20.0 / qblur=0.5 / ip_ratio=1.40 / pb_ratio=1.30 / aq=1:0.90
Язык : Thai
Аудио #1
Идентификатор : 2
Формат : AC-3
Формат/Информация : Audio Coding 3
Расширение режима : CM (complete main)
Параметр Endianness формата : Big
Идентификатор кодека : A_AC3
Продолжительность : 1 ч. 44 м.
Вид битрейта : Постоянный
Битрейт : 448 Кбит/сек
Каналы : 6 каналов
Расположение каналов : Front: L C R, Side: L R, LFE
Частота : 48,0 КГц
Битовая глубина : 16 бит
Метод сжатия : С потерями
Размер потока : 334 Мбайт (10%)
Заголовок : Одноголосый закадровый, А.Карповский
Язык : Russian
Аудио #2
Идентификатор : 3
Формат : AC-3
Формат/Информация : Audio Coding 3
Расширение режима : CM (complete main)
Параметр Endianness формата : Big
Идентификатор кодека : A_AC3
Продолжительность : 1 ч. 44 м.
Вид битрейта : Постоянный
Битрейт : 448 Кбит/сек
Каналы : 6 каналов
Расположение каналов : Front: L C R, Side: L R, LFE
Частота : 48,0 КГц
Битовая глубина : 16 бит
Метод сжатия : С потерями
Размер потока : 334 Мбайт (10%)
Заголовок : Original
Язык : Thai
Меню
00:00:00.000 : :Chapter 01
00:08:45.482 : :Chapter 02
00:11:58.342 : :Chapter 03
00:13:45.782 : :Chapter 04
00:18:30.067 : :Chapter 05
00:21:20.904 : :Chapter 06
00:27:36.654 : :Chapter 07
00:32:15.933 : :Chapter 08
00:42:39.556 : :Chapter 09
00:51:28.085 : :Chapter 10
00:56:26.216 : :Chapter 11
01:12:28.344 : :Chapter 12
01:20:48.468 : :Chapter 13
01:27:42.674 : :Chapter 14
01:36:29.783 : :Chapter 15
01:41:47.392 : :Chapter 16
01:44:08.325 : :Chapter 17

x264

x264 [info]: frame I:1558 Avg QP:15.94 size: 90741
x264 [info]: frame P:31434 Avg QP:18.91 size: 37655
x264 [info]: frame B:116820 Avg QP:20.50 size: 12384
x264 [info]: consecutive B-frames: 2.7% 2.2% 6.5% 14.6% 10.9% 56.0% 3.7% 0.9% 1.3% 1.1%
[Профиль] [ЛС]
Показать сообщения:    

Текущее время: Сегодня 12:15

Часовой пояс: GMT



Вы не можете начинать темы
Вы не можете отвечать на сообщения
Вы не можете редактировать свои сообщения
Вы не можете удалять свои сообщения
Вы не можете голосовать в опросах
Вы не можете прикреплять файлы к сообщениям
Вы не можете скачивать файлы